<?xml version="1.0" standalone="no"?>
<!DOCTYPE svg PUBLIC "-//W3C//DTD SVG 1.1//EN" "http://www.w3.org/Graphics/SVG/1.1/DTD/svg11.dtd" >
<svg xmlns="http://www.w3.org/2000/svg">
<metadata>Generated by IcoMoon</metadata>
<defs>
<font id="icomoon" horiz-adv-x="512">
<font-face units-per-em="512" ascent="480" descent="-32" />
<missing-glyph horiz-adv-x="512" />
<glyph unicode="&#x20;" d="" horiz-adv-x="256" />
<glyph unicode="&#xe600;" d="M144 235.2l-16 91.2h-64v-192h44.8v107.2l20.8-107.2h30.4l20.8 107.2v-107.2h43.2v192h-67.2zM0 326.4h48v-192h-48v192zM465.6 296c-12.8 0-27.2-8-32-12.8v43.2h-49.6v-192h40c0 0 3.2 11.2 6.4 9.6s20.8-8 32-8 16 0 22.4 3.2c6.4 4.8 11.2 11.2 11.2 19.2v112c1.6 16-16 25.6-30.4 25.6zM448 168c0-4.8-1.6-8-6.4-8s-6.4 3.2-6.4 8v97.6c0 4.8 1.6 6.4 6.4 6.4s6.4-1.6 6.4-6.4v-97.6zM353.6 316.8c-9.6 6.4-19.2 9.6-54.4 9.6h-59.2v-192h59.2c33.6 0 44.8 3.2 54.4 9.6s14.4 16 14.4 27.2v116.8c0 14.4-4.8 22.4-14.4 28.8zM308.8 174.4c0-9.6-11.2-8-20.8-8v128c9.6 0 20.8 1.6 20.8-8v-112z" />
<glyph unicode="&#xe601;" d="M256 486.4c-140.8 0-256-115.2-256-256s115.2-256 256-256 256 115.2 256 256-115.2 256-256 256zM113.6 150.4h-33.6v160h33.6v-160zM238.4 150.4h-30.4v89.6l-14.4-89.6h-22.4l-14.4 89.6v-89.6h-32v160h44.8l11.2-76.8 9.6 76.8h48v-160zM340.8 180.8c0-9.6-3.2-17.6-9.6-22.4s-14.4-8-38.4-8h-41.6v160h41.6c25.6 0 32-3.2 38.4-8s9.6-12.8 9.6-24v-97.6zM432 169.6c0-6.4-3.2-12.8-8-16s-8-3.2-16-3.2-20.8 4.8-22.4 6.4c-1.6 3.2-4.8-6.4-4.8-6.4h-28.8v160h35.2v-35.2c3.2 3.2 14.4 11.2 22.4 11.2 9.6 0 22.4-8 22.4-20.8v-96zM393.6 265.6c-4.8 0-6.4-1.6-6.4-4.8v-81.6c0-3.2 1.6-6.4 6.4-6.4s6.4 3.2 6.4 6.4v81.6c0 3.2-1.6 4.8-6.4 4.8zM288 283.2v-107.2c8 0 16-1.6 16 6.4v92.8c0 9.6-8 8-16 8z" />
<glyph unicode="&#xe602;" d="M276.8 283.2v-105.6c6.4 0 16-1.6 16 6.4v92.8c-1.6 8-9.6 6.4-16 6.4zM444.8 486.4h-377.6c-36.8 0-67.2-30.4-67.2-67.2v-376c0-38.4 30.4-68.8 67.2-68.8h376c36.8 0 67.2 30.4 67.2 67.2v377.6c1.6 36.8-28.8 67.2-65.6 67.2zM88 150.4h-40v160h40v-160zM224 150.4h-32v88l-16-88h-22.4l-16 88v-88h-33.6v160h48l12.8-75.2 9.6 75.2h49.6v-160zM336 180.8c0-9.6-3.2-17.6-11.2-22.4-6.4-4.8-16-8-40-8h-44.8v160h44.8c27.2 0 33.6-3.2 40-8 8-4.8 11.2-11.2 11.2-24v-97.6zM448 171.2c0-6.4-4.8-11.2-9.6-16-4.8-3.2-9.6-3.2-19.2-3.2s-24 4.8-27.2 6.4-6.4-8-6.4-8h-33.6v160h43.2v-35.2c4.8 3.2 16 11.2 27.2 11.2 12.8 0 27.2-8 25.6-20.8v-94.4zM401.6 262.4c-4.8 0-4.8-1.6-4.8-4.8v-78.4c0-3.2 1.6-6.4 4.8-6.4 4.8 0 4.8 3.2 4.8 6.4v78.4c0 3.2-1.6 4.8-4.8 4.8z" />
<glyph unicode="&#xe603;" d="M452.8 486.4h-393.6c-33.6 0-59.2-25.6-59.2-59.2v-393.6c0-32 40-59.2 59.2-59.2h393.6c32 0 59.2 27.2 59.2 59.2v393.6c-1.6 33.6-27.2 59.2-59.2 59.2zM352 403.2c0 11.2 8 19.2 19.2 19.2h57.6c11.2 0 19.2-8 19.2-19.2v-57.6c0-11.2-8-19.2-19.2-19.2h-57.6c-11.2 0-19.2 8-19.2 19.2v57.6zM160 230.4c0 52.8 43.2 96 96 96s96-43.2 96-96-43.2-96-96-96-96 43.2-96 96zM449.6 57.6c0-11.2-9.6-19.2-19.2-19.2h-347.2c-11.2 0-19.2 8-19.2 19.2v212.8h36.8c-3.2-12.8-4.8-25.6-4.8-40 0-88 72-160 160-160s160 72 160 160c0 14.4-1.6 27.2-4.8 40h38.4v-212.8z" />
<glyph unicode="&#xe604;" d="M256 182.4c27.2 0 48 20.8 48 48s-20.8 48-48 48-48-20.8-48-48 20.8-48 48-48zM336 230.4c0-44.8-35.2-80-80-80s-80 35.2-80 80c0 8 0 12.8 3.2 19.2h-19.2v-107.2c0-4.8 3.2-9.6 9.6-9.6h174.4c4.8 0 9.6 3.2 9.6 9.6v107.2h-19.2c1.6-6.4 1.6-11.2 1.6-19.2zM313.6 278.4h28.8c4.8 0 9.6 3.2 9.6 9.6v28.8c0 4.8-3.2 9.6-9.6 9.6h-28.8c-4.8 0-9.6-3.2-9.6-9.6v-28.8c0-6.4 3.2-9.6 9.6-9.6zM256 486.4c-140.8 0-256-115.2-256-256s115.2-256 256-256 256 115.2 256 256-115.2 256-256 256zM384 131.2c0-16-12.8-28.8-28.8-28.8h-198.4c-9.6 0-28.8 12.8-28.8 28.8v198.4c0 16 12.8 28.8 28.8 28.8h196.8c16 0 28.8-12.8 28.8-28.8v-198.4z" />
<glyph unicode="&#xe605;" d="M328 291.2h35.2c6.4 0 12.8 4.8 12.8 12.8v35.2c0 6.4-4.8 12.8-12.8 12.8h-35.2c-6.4 0-12.8-4.8-12.8-12.8v-35.2c1.6-8 6.4-12.8 12.8-12.8zM256 169.6c33.6 0 60.8 27.2 60.8 60.8s-27.2 60.8-60.8 60.8-60.8-27.2-60.8-60.8 27.2-60.8 60.8-60.8zM355.2 230.4c0-54.4-44.8-99.2-99.2-99.2s-99.2 44.8-99.2 99.2c0 9.6 1.6 17.6 3.2 25.6h-24v-132.8c0-6.4 4.8-12.8 12.8-12.8h217.6c6.4 0 12.8 4.8 12.8 12.8v132.8h-24c0-8 0-16 0-25.6zM444.8 486.4h-377.6c-36.8 0-67.2-30.4-67.2-67.2v-376c0-38.4 30.4-68.8 67.2-68.8h376c36.8 0 67.2 30.4 67.2 67.2v377.6c1.6 36.8-28.8 67.2-65.6 67.2zM416 107.2c0-19.2-17.6-36.8-36.8-36.8h-246.4c-11.2 0-36.8 17.6-36.8 36.8v246.4c0 20.8 16 36.8 36.8 36.8h246.4c19.2 0 35.2-16 36.8-36.8v-246.4z" />
<glyph unicode="&#xe606;" d="M512 288c-1.6 3.2-4.8 6.4-9.6 6.4l-164.8 14.4-72 155.2c-1.6 3.2-4.8 6.4-9.6 6.4s-8-3.2-9.6-6.4l-73.6-152-163.2-17.6c-4.8 0-8-3.2-9.6-6.4 0-4.8 0-9.6 3.2-11.2l120-108.8-28.8-164.8c-1.6-4.8 0-8 4.8-11.2 1.6 0 3.2-1.6 6.4-1.6 1.6 0 3.2 0 4.8 1.6l147.2 83.2 145.6-84.8c3.2-1.6 8-1.6 11.2 1.6 3.2 1.6 4.8 6.4 4.8 11.2l-20.8 115.2c6.4 3.2 20.8 16 30.4 27.2-14.4-6.4-20.8-6.4-35.2-9.6v0c-97.6-19.2-246.4-3.2-251.2-1.6l161.6 112c-56 9.6-182.4 17.6-190.4 17.6-1.6 0-1.6 0 0 0 0 0 0 0 0 0 6.4 1.6 174.4 25.6 272-1.6l-160-110.4c0 0 121.6-11.2 168-6.4l-3.2 22.4 120 108.8c1.6 1.6 1.6 6.4 1.6 11.2z" />
<glyph unicode="&#xe607;" d="M256 486.4c-140.8 0-256-115.2-256-256s115.2-256 256-256 256 115.2 256 256-115.2 256-256 256zM414.4 259.2l-75.2-67.2 1.6-14.4c-28.8-3.2-105.6 3.2-105.6 3.2l99.2 68.8c-60.8 17.6-166.4 1.6-169.6 1.6 4.8 0 83.2-4.8 118.4-11.2l-100.8-70.4c3.2-1.6 96-11.2 156.8 1.6 9.6 1.6 12.8 1.6 22.4 6.4-6.4-6.4-14.4-14.4-19.2-17.6l12.8-72c0-3.2-1.6-6.4-3.2-6.4-1.6-1.6-4.8-1.6-6.4-1.6l-88 54.4-92.8-51.2c-1.6-1.6-1.6-1.6-3.2-1.6s-3.2 1.6-3.2 1.6c-3.2 1.6-3.2 3.2-3.2 6.4l17.6 102.4-75.2 67.2c-1.6 1.6-1.6 4.8-1.6 8 1.6 1.6 3.2 3.2 6.4 3.2l102.4 11.2 46.4 94.4c1.6 1.6 3.2 3.2 6.4 3.2s4.8-1.6 6.4-3.2l44.8-97.6 102.4-9.6c3.2 0 4.8-1.6 6.4-3.2-1.6-1.6-1.6-4.8-3.2-6.4z" />
<glyph unicode="&#xe608;" d="M444.8 486.4h-377.6c-36.8 0-67.2-30.4-67.2-67.2v-376c0-38.4 30.4-68.8 67.2-68.8h376c36.8 0 67.2 30.4 67.2 67.2v377.6c1.6 36.8-28.8 67.2-65.6 67.2zM446.4 265.6l-89.6-81.6 3.2-17.6c-35.2-3.2-126.4 4.8-126.4 4.8l120 83.2c-73.6 20.8-200 3.2-204.8 1.6 6.4 0 100.8-6.4 142.4-12.8l-121.6-84.8c3.2-1.6 115.2-12.8 188.8 1.6 11.2 3.2 16 3.2 27.2 8-8-8-17.6-17.6-22.4-20.8l16-86.4c0-3.2-1.6-8-3.2-8-3.2-3.2-6.4-3.2-8-1.6l-108.8 64-110.4-62.4c-1.6-1.6-3.2-1.6-3.2-1.6-3.2 0-3.2 1.6-4.8 1.6-3.2 3.2-4.8 4.8-3.2 8l22.4 123.2-89.6 81.6c-6.4 1.6-6.4 4.8-6.4 8 1.6 3.2 3.2 4.8 6.4 4.8l123.2 12.8 54.4 115.2c1.6 3.2 3.2 4.8 8 4.8s6.4-3.2 8-4.8l54.4-116.8 123.2-11.2c3.2 0 6.4-3.2 8-4.8-1.6-3.2-1.6-6.4-3.2-8z" />
<glyph unicode="&#xe609;" d="M224 486.4c-126.4-20.8-224-126.4-224-254.4 0-64 24-121.6 64-166.4 94.4 43.2 160 142.4 160 257.6v163.2zM288 323.2c0-115.2 65.6-214.4 160-257.6 40 44.8 64 102.4 64 166.4 0 128-97.6 233.6-224 254.4v-163.2zM256 166.4c-16-67.2-62.4-123.2-123.2-161.6 36.8-20.8 78.4-32 123.2-32s86.4 11.2 123.2 32c-57.6 38.4-107.2 96-123.2 161.6z" />
<glyph unicode="&#xe60a;" d="M256 486.4c-140.8 0-256-115.2-256-256s115.2-256 256-256 256 115.2 256 256-115.2 256-256 256zM96 232c0 80 60.8 145.6 140.8 158.4v-102.4c0-72-41.6-132.8-99.2-160-27.2 28.8-41.6 64-41.6 104zM256 70.4c-28.8 0-54.4 6.4-76.8 19.2 38.4 24 67.2 59.2 76.8 100.8 9.6-41.6 41.6-76.8 76.8-100.8-22.4-12.8-48-19.2-76.8-19.2zM376 128c-59.2 27.2-99.2 88-99.2 160v102.4c78.4-12.8 140.8-78.4 140.8-158.4-1.6-40-16-75.2-41.6-104z" />
<glyph unicode="&#xe60b;" d="M444.8 486.4h-377.6c-36.8 0-67.2-30.4-67.2-67.2v-376c0-38.4 30.4-68.8 67.2-68.8h376c36.8 0 67.2 30.4 67.2 67.2v377.6c1.6 36.8-28.8 67.2-65.6 67.2zM96 232c0 80 60.8 145.6 140.8 160v-102.4c0-72-41.6-134.4-100.8-161.6-25.6 27.2-40 64-40 104zM256 70.4c-28.8 0-54.4 6.4-76.8 20.8 38.4 24 67.2 59.2 76.8 100.8 9.6-41.6 41.6-76.8 76.8-100.8-22.4-14.4-48-20.8-76.8-20.8zM376 128c-59.2 27.2-100.8 89.6-100.8 161.6v100.8c78.4-12.8 140.8-78.4 140.8-160 0-38.4-14.4-75.2-40-102.4z" />
<glyph unicode="&#xe60c;" d="M456 174.4c41.6-38.4 49.6-56 51.2-59.2 17.6-28.8-19.2-30.4-19.2-30.4h-68.8c0 0-14.4-3.2-33.6 9.6-25.6 17.6-49.6 62.4-68.8 57.6-19.2-6.4-19.2-51.2-19.2-51.2s0-6.4-4.8-11.2c-4.8-4.8-14.4-3.2-14.4-3.2h-30.4c0 0-67.2-1.6-126.4 59.2-62.4 68.8-120 195.2-120 195.2s-3.2 8 0 12.8c4.8 4.8 14.4 4.8 14.4 4.8h73.6c0 0 6.4-1.6 11.2-4.8s6.4-8 6.4-8 11.2-25.6 27.2-52.8c30.4-52.8 44.8-64 54.4-59.2 14.4 8 11.2 75.2 11.2 75.2s0 22.4-8 33.6c-6.4 8-17.6 11.2-22.4 11.2s3.2 9.6 11.2 14.4c14.4 6.4 38.4 6.4 65.6 6.4 20.8 0 32-1.6 40-3.2 25.6-6.4 16-27.2 16-84.8 0-17.6-3.2-43.2 9.6-51.2 6.4-3.2 14.4 0 48 57.6 16 27.2 28.8 56 28.8 56s3.2 6.4 6.4 8c6.4 1.6 12.8 1.6 12.8 1.6h76.8c0 0 22.4 3.2 27.2-8 3.2-11.2-8-32-40-73.6-52.8-68.8-57.6-62.4-16-102.4z" />
<glyph unicode="&#xe60d;" d="M256 486.4c-140.8 0-256-115.2-256-256s115.2-256 256-256 256 115.2 256 256-115.2 256-256 256zM380.8 193.6c25.6-25.6 30.4-36.8 32-40 11.2-19.2-12.8-20.8-12.8-20.8h-43.2c0 0-9.6-1.6-20.8 6.4-16 11.2-30.4 41.6-43.2 38.4-12.8-4.8-12.8-33.6-12.8-33.6s0-4.8-3.2-8c-3.2-3.2-9.6-1.6-9.6-1.6h-19.2c0 0-41.6-1.6-78.4 40-36.8 44.8-73.6 129.6-73.6 129.6s-1.6 4.8 0 8c3.2 3.2 9.6 3.2 9.6 3.2h46.4c0 0 4.8-1.6 6.4-3.2 3.2-1.6 4.8-4.8 4.8-4.8s6.4-17.6 17.6-35.2c19.2-35.2 28.8-43.2 33.6-40 9.6 4.8 6.4 49.6 6.4 49.6s0 14.4-4.8 22.4c-4.8 4.8-11.2 8-14.4 8s1.6 6.4 6.4 9.6c9.6 4.8 24 4.8 41.6 4.8 12.8 0 20.8-1.6 25.6-1.6 16-4.8 9.6-17.6 9.6-56 0-11.2-1.6-28.8 6.4-33.6 4.8-1.6 9.6 0 30.4 38.4 9.6 17.6 17.6 36.8 17.6 36.8s1.6 4.8 4.8 4.8c4.8 1.6 8 1.6 8 1.6h48c0 0 14.4 1.6 17.6-4.8 1.6-8-4.8-20.8-25.6-49.6-33.6-46.4-36.8-43.2-11.2-68.8z" />
<glyph unicode="&#xe60e;" d="M444.8 486.4h-377.6c-36.8 0-67.2-30.4-67.2-67.2v-376c0-38.4 30.4-68.8 67.2-68.8h376c36.8 0 67.2 30.4 67.2 67.2v377.6c1.6 36.8-28.8 67.2-65.6 67.2zM393.6 193.6c28.8-25.6 33.6-38.4 35.2-40 12.8-19.2-12.8-20.8-12.8-20.8h-48c0 0-9.6-1.6-22.4 6.4-17.6 11.2-33.6 41.6-48 38.4-12.8-4.8-12.8-35.2-12.8-35.2s0-4.8-3.2-8c-3.2-3.2-9.6-1.6-9.6-1.6h-20.8c0 0-46.4-1.6-86.4 40-43.2 46.4-83.2 131.2-83.2 131.2s-1.6 4.8 0 8c3.2 3.2 9.6 3.2 9.6 3.2h51.2c0 0 4.8-1.6 8-3.2s4.8-4.8 4.8-4.8 8-17.6 19.2-35.2c20.8-35.2 30.4-43.2 36.8-40 9.6 4.8 8 51.2 8 51.2s0 14.4-4.8 22.4c-4.8 4.8-12.8 8-16 8s1.6 6.4 8 9.6c9.6 4.8 25.6 4.8 44.8 4.8 14.4 0 22.4-1.6 27.2-1.6 17.6-4.8 11.2-17.6 11.2-57.6 0-11.2-1.6-28.8 6.4-35.2 4.8-1.6 9.6 0 33.6 38.4 11.2 17.6 19.2 38.4 19.2 38.4s1.6 4.8 4.8 4.8c4.8 1.6 8 1.6 8 1.6h52.8c0 0 16 1.6 19.2-4.8 1.6-8-4.8-22.4-27.2-49.6-38.4-46.4-41.6-41.6-12.8-68.8z" />
<glyph unicode="&#xe60f;" d="M353.6 318.4c1.6 0 3.2 0 3.2 0-17.6 70.4-92.8 120-177.6 120-99.2 0-179.2-67.2-179.2-153.6 0-49.6 27.2-91.2 72-121.6l-17.6-54.4 62.4 32c22.4-4.8 40-9.6 62.4-9.6 4.8 0 8 0 12.8 0-4.8 12.8-6.4 25.6-6.4 40 0 81.6 75.2 147.2 168 147.2zM216 358.4c12.8 0 24-11.2 24-24s-11.2-24-24-24c-12.8 0-24 11.2-24 24s11.2 24 24 24zM118.4 310.4c-12.8 0-24 11.2-24 24s11.2 24 24 24 24-11.2 24-24-11.2-24-24-24zM512 168c0 70.4-72 128-153.6 128-86.4 0-153.6-57.6-153.6-128s67.2-129.6 153.6-129.6c17.6 0 36.8 6.4 54.4 9.6l49.6-27.2-14.4 44.8c36.8 27.2 64 62.4 64 102.4zM312 177.6c-12.8 0-24 9.6-24 24s11.2 24 24 24 24-11.2 24-24-11.2-24-24-24zM408 177.6c-12.8 0-24 9.6-24 24s11.2 24 24 24c12.8 0 24-9.6 24-24s-9.6-24-24-24z" />
<glyph unicode="&#xe610;" d="M294.4 227.2c-8 0-16-6.4-16-16s8-16 16-16 16 8 16 16-6.4 16-16 16zM228.8 286.4c8 0 16 8 16 16s-8 16-16 16-16-8-16-16 6.4-16 16-16zM161.6 318.4c-9.6 0-16-8-16-16s8-16 16-16c8 0 16 8 16 16s-8 16-16 16zM360 227.2c-8 0-16-6.4-16-16s8-16 16-16c9.6 0 16 6.4 16 16s-6.4 16-16 16zM256 486.4c-140.8 0-256-115.2-256-256s115.2-256 256-256 256 115.2 256 256-115.2 256-256 256zM203.2 163.2c-16 0-27.2 3.2-43.2 6.4l-43.2-22.4 12.8 36.8c-30.4 22.4-49.6 49.6-49.6 84.8 0 59.2 54.4 105.6 123.2 105.6 57.6 0 110.4-33.6 121.6-83.2 0 0-1.6 0-1.6 0-64 0-115.2-44.8-115.2-100.8 0-9.6 1.6-19.2 4.8-27.2h-9.6zM387.2 118.4l9.6-30.4-33.6 19.2c-12.8-1.6-25.6-6.4-36.8-6.4-59.2 0-105.6 40-105.6 89.6 0 48 46.4 88 105.6 88 56 0 105.6-40 105.6-88 0-30.4-19.2-54.4-44.8-72z" />
<glyph unicode="&#xe611;" d="M297.6 227.2c-9.6 0-17.6-8-17.6-17.6 0-11.2 8-17.6 17.6-17.6s17.6 8 17.6 17.6-8 17.6-17.6 17.6zM225.6 292.8c9.6 0 17.6 8 17.6 17.6s-8 17.6-17.6 17.6-17.6-8-17.6-17.6 8-17.6 17.6-17.6zM153.6 328c-9.6 0-17.6-8-17.6-17.6s8-17.6 17.6-17.6c9.6 0 17.6 8 17.6 17.6s-8 17.6-17.6 17.6zM444.8 486.4h-377.6c-36.8 0-67.2-30.4-67.2-67.2v-376c0-38.4 30.4-68.8 67.2-68.8h376c36.8 0 67.2 30.4 67.2 67.2v377.6c1.6 36.8-28.8 67.2-65.6 67.2zM198.4 155.2c-16 0-30.4 3.2-46.4 8l-46.4-24 12.8 41.6c-33.6 22.4-54.4 54.4-54.4 91.2 0 67.2 60.8 118.4 134.4 118.4 64 0 120-38.4 132.8-91.2 0 0-1.6 0-1.6 0-68.8 0-124.8-49.6-124.8-112 0-11.2 1.6-20.8 4.8-30.4h-11.2zM400 105.6l11.2-33.6-36.8 20.8c-12.8-3.2-27.2-8-40-8-64 0-115.2 44.8-115.2 99.2s49.6 97.6 115.2 97.6c60.8 0 115.2-43.2 115.2-97.6-1.6-30.4-22.4-57.6-49.6-78.4zM369.6 227.2c-9.6 0-17.6-8-17.6-17.6 0-11.2 8-17.6 17.6-17.6 11.2 0 17.6 8 17.6 17.6 0 11.2-8 17.6-17.6 17.6z" />
<glyph unicode="&#xe612;" d="M384 238.4c-8 1.6-12.8 3.2-8 12.8 8 20.8 9.6 38.4 0 51.2-16 24-62.4 22.4-113.6 0 0 0-16-6.4-12.8 6.4 8 25.6 6.4 48-6.4 59.2-28.8 28.8-104-1.6-168-65.6-48-48-76.8-99.2-76.8-144 1.6-83.2 110.4-136 216-136 139.2 0 232 81.6 232 145.6 0 38.4-32 60.8-62.4 70.4zM214.4 52.8c-84.8-8-158.4 30.4-163.2 84.8-4.8 56 59.2 107.2 144 115.2s158.4-30.4 163.2-84.8c6.4-54.4-59.2-105.6-144-115.2zM476.8 393.6c-33.6 36.8-83.2 51.2-129.6 41.6v0c-11.2-1.6-17.6-12.8-14.4-24 1.6-11.2 12.8-17.6 24-14.4 32 6.4 67.2-3.2 91.2-30.4s30.4-62.4 20.8-94.4v0c-4.8-9.6 1.6-20.8 11.2-24s20.8 1.6 24 12.8c0 0 0 0 0 0 16 44.8 6.4 94.4-27.2 132.8zM417.6 270.4c9.6-3.2 17.6 1.6 20.8 11.2 6.4 22.4 3.2 46.4-14.4 64v0c-16 17.6-40 25.6-62.4 20.8-9.6-1.6-14.4-11.2-12.8-20.8s11.2-14.4 20.8-12.8v0c11.2 1.6 22.4-1.6 30.4-9.6 8-9.6 9.6-20.8 6.4-32v0c-1.6-8 3.2-17.6 11.2-20.8zM224 212.8c-40 11.2-86.4-9.6-104-44.8-17.6-36.8 0-76.8 40-89.6 41.6-14.4 91.2 8 108.8 46.4 17.6 36.8-3.2 76.8-44.8 88zM192 120c-8-12.8-25.6-19.2-38.4-12.8s-17.6 20.8-8 33.6c8 12.8 25.6 17.6 38.4 12.8 12.8-6.4 17.6-20.8 8-33.6z" />
<glyph unicode="&#xe613;" d="M214.4 246.4c-57.6-4.8-102.4-40-99.2-78.4 3.2-36.8 54.4-64 112-57.6s102.4 41.6 99.2 78.4c-3.2 36.8-52.8 62.4-112 57.6zM265.6 158.4c-12.8-25.6-46.4-41.6-75.2-32-27.2 8-40 36.8-27.2 60.8s43.2 38.4 72 30.4c28.8-6.4 41.6-33.6 30.4-59.2zM208 177.6c-8 3.2-20.8 0-25.6-8-6.4-8-3.2-19.2 4.8-22.4 8-4.8 20.8 0 25.6 8 6.4 8 3.2 17.6-4.8 22.4zM256 486.4c-140.8 0-256-115.2-256-256s115.2-256 256-256 256 115.2 256 256-115.2 256-256 256zM228.8 88c-72 0-147.2 36.8-148.8 92.8 0 30.4 19.2 65.6 52.8 99.2 43.2 43.2 96 64 115.2 44.8 8-8 9.6-22.4 4.8-40-1.6-8 8-4.8 8-4.8 35.2 16 67.2 16 78.4 0 6.4-8 4.8-20.8 0-35.2-3.2-6.4 0-8 4.8-8 20.8-6.4 43.2-22.4 43.2-48 0-44.8-64-100.8-158.4-100.8zM355.2 294.4c-4.8 4.8-12.8 8-20.8 6.4-6.4-1.6-12.8 1.6-14.4 8s1.6 12.8 8 14.4c16 3.2 32-1.6 43.2-14.4 12.8-12.8 14.4-28.8 9.6-43.2-1.6-6.4-8-9.6-14.4-8-4.8 1.6-8 8-8 14.4 3.2 8 3.2 16-3.2 22.4zM427.2 251.2c-1.6-8-9.6-11.2-16-8s-11.2 9.6-8 16c6.4 22.4 1.6 46.4-14.4 64-16 19.2-40 25.6-62.4 20.8-8-1.6-16 1.6-16 9.6-1.6 8 1.6 16 9.6 16 32 6.4 65.6-3.2 89.6-28.8 20.8-24 28.8-59.2 17.6-89.6z" />
<glyph unicode="&#xe614;" d="M208 177.6c-8 3.2-20.8 0-25.6-8-6.4-8-3.2-19.2 4.8-22.4 8-4.8 20.8 0 25.6 8 6.4 8 3.2 17.6-4.8 22.4zM444.8 486.4h-377.6c-36.8 0-67.2-30.4-67.2-67.2v-376c0-38.4 30.4-68.8 67.2-68.8h376c36.8 0 67.2 30.4 67.2 67.2v377.6c1.6 36.8-28.8 67.2-65.6 67.2zM228.8 88c-72 0-147.2 36.8-148.8 92.8 0 30.4 19.2 65.6 52.8 99.2 43.2 43.2 96 64 115.2 44.8 8-8 9.6-22.4 4.8-40-1.6-8 8-4.8 8-4.8 35.2 16 67.2 16 78.4 0 6.4-8 4.8-20.8 0-35.2-3.2-6.4 0-8 4.8-8 20.8-6.4 43.2-22.4 43.2-48 0-44.8-64-100.8-158.4-100.8zM355.2 294.4c-4.8 4.8-12.8 8-20.8 6.4-6.4-1.6-12.8 1.6-14.4 8s1.6 12.8 8 14.4c16 3.2 32-1.6 43.2-14.4 12.8-12.8 14.4-28.8 9.6-43.2-1.6-6.4-8-9.6-14.4-8-4.8 1.6-8 8-8 14.4 3.2 8 3.2 16-3.2 22.4zM427.2 251.2c-1.6-8-9.6-11.2-16-8-6.4 1.6-11.2 9.6-8 16 6.4 22.4 1.6 46.4-14.4 64s-40 25.6-62.4 20.8c-8-1.6-16 1.6-16 9.6-1.6 8 1.6 16 9.6 16 32 6.4 65.6-3.2 89.6-28.8 22.4-24 28.8-59.2 17.6-89.6zM214.4 246.4c-57.6-4.8-102.4-40-99.2-78.4 3.2-36.8 54.4-64 112-57.6s102.4 41.6 99.2 78.4c-3.2 36.8-52.8 62.4-112 57.6zM265.6 158.4c-12.8-25.6-46.4-41.6-75.2-32-27.2 8-40 36.8-27.2 60.8s43.2 38.4 72 30.4c28.8-6.4 41.6-33.6 30.4-59.2z" />
<glyph unicode="&#xe615;" d="M512 236.8c0-137.6-112-249.6-251.2-249.6-44.8 0-84.8 11.2-121.6 30.4l-139.2-43.2 44.8 134.4c-22.4 36.8-36.8 81.6-36.8 128 1.6 137.6 113.6 249.6 252.8 249.6s251.2-112 251.2-249.6zM260.8 446.4c-116.8 0-211.2-94.4-211.2-209.6 0-46.4 14.4-88 40-123.2l-27.2-78.4 81.6 27.2c33.6-22.4 73.6-35.2 116.8-35.2 116.8 0 211.2 94.4 211.2 209.6s-94.4 209.6-211.2 209.6zM387.2 179.2c-1.6 3.2-6.4 4.8-11.2 6.4-6.4 3.2-36.8 17.6-41.6 19.2-6.4 1.6-9.6 3.2-14.4-3.2s-16-19.2-19.2-24c-3.2-4.8-6.4-4.8-12.8-1.6s-25.6 9.6-49.6 30.4c-17.6 16-30.4 36.8-33.6 41.6-3.2 6.4 0 9.6 3.2 12.8s6.4 6.4 9.6 11.2c3.2 3.2 4.8 6.4 6.4 9.6 1.6 4.8 1.6 8 0 11.2s-14.4 33.6-19.2 44.8c-4.8 12.8-9.6 9.6-14.4 9.6-3.2 0-8 0-11.2 0s-11.2-1.6-16-8c-6.4-6.4-20.8-20.8-20.8-51.2s22.4-59.2 25.6-64c3.2-4.8 43.2-67.2 105.6-92.8 62.4-24 62.4-16 73.6-16 11.2 1.6 36.8 14.4 41.6 28.8 0 20.8 0 33.6-1.6 35.2z" />
<glyph unicode="&#xe616;" d="M259.2 364.8c-73.6 0-131.2-59.2-131.2-131.2 0-28.8 9.6-54.4 25.6-76.8l-17.6-49.6 51.2 17.6c20.8-14.4 46.4-22.4 73.6-22.4 73.6 0 131.2 59.2 131.2 131.2s-59.2 131.2-132.8 131.2zM313.6 158.4c-6.4 0-6.4-4.8-46.4 9.6-38.4 16-64 54.4-65.6 57.6s-16 20.8-16 40 9.6 28.8 12.8 32c3.2 3.2 8 4.8 9.6 4.8h6.4c3.2 0 6.4 1.6 9.6-6.4 3.2-6.4 11.2-25.6 12.8-28.8s1.6-3.2 0-6.4c-1.6-1.6-1.6-3.2-3.2-6.4s-3.2-4.8-6.4-6.4-3.2-3.2-1.6-8c1.6-3.2 9.6-16 20.8-25.6 14.4-12.8 27.2-17.6 30.4-19.2s6.4-1.6 8 1.6 9.6 11.2 12.8 14.4 4.8 3.2 9.6 1.6c3.2-1.6 22.4-9.6 25.6-12.8 3.2-1.6 6.4-1.6 6.4-3.2 1.6-1.6 1.6-9.6 1.6-22.4-4.8-6.4-20.8-14.4-27.2-16zM256 486.4c-140.8 0-256-115.2-256-256s115.2-256 256-256 256 115.2 256 256-115.2 256-256 256zM259.2 78.4c-28.8 0-52.8 6.4-76.8 19.2l-86.4-27.2 28.8 83.2c-14.4 22.4-22.4 51.2-22.4 80 0 86.4 70.4 156.8 156.8 156.8s156.8-70.4 156.8-156.8-70.4-155.2-156.8-155.2z" />
<glyph unicode="&#xe617;" d="M259.2 392c-88 0-158.4-70.4-158.4-156.8 0-35.2 11.2-65.6 30.4-92.8l-20.8-59.2 60.8 20.8c25.6-16 56-27.2 88-27.2 88 0 158.4 70.4 158.4 156.8 0 88-70.4 158.4-158.4 158.4zM324.8 144c-8 0-8-6.4-56 12.8-46.4 19.2-76.8 65.6-80 70.4-3.2 3.2-19.2 25.6-19.2 48s11.2 33.6 16 38.4c3.2 4.8 9.6 6.4 12.8 6.4h8c3.2 0 8 3.2 11.2-6.4 3.2-8 12.8-32 14.4-33.6s1.6-4.8 0-8c-1.6-3.2-3.2-4.8-4.8-8-3.2-3.2-4.8-6.4-8-8s-4.8-4.8-3.2-9.6c3.2-3.2 12.8-19.2 25.6-32 17.6-16 32-20.8 36.8-22.4 4.8-3.2 8-3.2 9.6 1.6 3.2 3.2 11.2 12.8 14.4 17.6s6.4 3.2 11.2 1.6c3.2-1.6 27.2-12.8 32-14.4 3.2-1.6 8-3.2 8-4.8 1.6-1.6 1.6-11.2 1.6-25.6-3.2-12.8-22.4-22.4-30.4-24zM444.8 486.4h-377.6c-36.8 0-67.2-30.4-67.2-67.2v-376c0-38.4 30.4-68.8 67.2-68.8h376c36.8 0 67.2 30.4 67.2 67.2v377.6c1.6 36.8-28.8 67.2-65.6 67.2zM259.2 48c-33.6 0-64 8-91.2 22.4l-104-32 33.6 100.8c-16 27.2-27.2 60.8-27.2 96 1.6 104 84.8 187.2 188.8 187.2 105.6 0 188.8-83.2 188.8-187.2s-83.2-187.2-188.8-187.2z" />
<glyph unicode="&#xe618;" d="M256 81.066l-249.6 249.6 14.934 16 234.666-234.667 234.667 234.667 14.933-16z" />
<glyph unicode="&#xe619;" d="M192.171 134.090c-88.341 0-160.214 71.84-160.214 160.16 0 88.341 71.872 160.214 160.214 160.214s160.202-71.872 160.202-160.214c0-88.32-71.862-160.16-160.202-160.16zM192.171 443.786c-82.454 0-149.547-67.082-149.547-149.546 0-82.432 67.082-149.494 149.547-149.494 82.454 0 149.536 67.062 149.536 149.494 0 82.464-67.082 149.546-149.536 149.546zM445.877 33.749c-1.365 0-2.72 0.522-3.765 1.558l-143.67 143.168c-2.091 2.080-2.091 5.462-0.022 7.541 2.080 2.101 5.462 2.080 7.541 0.022l143.669-143.168c2.091-2.080 2.091-5.462 0.022-7.541-1.034-1.056-2.411-1.579-3.776-1.579z" />
<glyph unicode="&#xe61a;" d="M421.462 38.357h-330.688c-20.587 0-37.334 16.747-37.334 37.334v245.408c0 20.587 16.746 37.334 37.334 37.334h101.142v26.624c0 20.587 16.746 37.334 37.334 37.334h53.376c20.587 0 37.334-16.746 37.334-37.334v-26.624h101.504c20.587 0 37.334-16.747 37.334-37.334v-245.408c0-20.587-16.757-37.334-37.334-37.334zM90.773 347.765c-14.698 0-26.666-11.968-26.666-26.666v-245.408c0-14.709 11.968-26.666 26.666-26.666h330.678c14.709 0 26.666 11.957 26.666 26.666v245.408c0 14.698-11.957 26.667-26.666 26.667h-106.827c-2.944 0-5.334 2.389-5.334 5.333v31.957c0 14.698-11.957 26.667-26.666 26.667h-53.376c-14.698 0-26.667-11.968-26.667-26.667v-31.957c0-2.944-2.389-5.333-5.333-5.333h-106.475zM282.731 347.978h-53.355c-2.944 0-5.333 2.389-5.333 5.334v21.098c0 8.822 7.178 16 16 16h32.022c8.822 0 16-7.178 16-16v-21.098c0-2.944-2.389-5.334-5.334-5.334zM234.698 358.645h42.688v15.766c0 2.944-2.4 5.334-5.334 5.334h-32.022c-2.944 0-5.333-2.389-5.333-5.334v-15.766zM325.75 347.702h-132.661c-2.944 0-5.333 2.389-5.333 5.333s2.389 5.334 5.333 5.334h132.661c2.944 0 5.334-2.389 5.334-5.334s-2.389-5.333-5.334-5.333zM410.688 134.378h-309.291c-26.464 0-48 21.536-48 48 0 2.944 2.389 5.334 5.334 5.334s5.334-2.389 5.334-5.334c0-20.587 16.746-37.334 37.334-37.334h309.291c20.587 0 37.334 16.747 37.334 37.334 0 2.944 2.389 5.334 5.334 5.334s5.334-2.389 5.334-5.334c0-26.464-21.536-48-48-48zM255.989 102.24c-17.643 0-31.989 14.315-31.989 31.904 0 2.944 2.389 5.334 5.333 5.334s5.333-2.389 5.333-5.334c0-11.712 9.568-21.238 21.322-21.238s21.322 9.536 21.322 21.238c0 2.944 2.389 5.334 5.334 5.334s5.334-2.389 5.334-5.334c-0.010-17.589-14.358-31.904-31.989-31.904z" />
<glyph unicode="&#xe61b;" d="M250.762-25.259c-2.944 0-5.333 2.389-5.333 5.334v500.992c0 2.944 2.389 5.334 5.333 5.334s5.334-2.389 5.334-5.334v-500.981c0-2.954-2.379-5.344-5.333-5.344zM506.486 219.882h-500.971c-2.944 0-5.333 2.389-5.333 5.334s2.389 5.333 5.333 5.333h500.981c2.944 0 5.334-2.39 5.334-5.333s-2.389-5.334-5.344-5.334z" />
<glyph unicode="&#xe61c;" d="M37.312 38.432c-1.002 0-2.005 0.277-2.88 0.842-1.536 0.981-2.453 2.678-2.453 4.49v373.259c0 1.814 0.928 3.51 2.453 4.49 1.536 0.982 3.467 1.11 5.109 0.352l405.579-186.624c1.899-0.875 3.104-2.762 3.104-4.842s-1.205-3.978-3.104-4.842l-405.579-186.635c-0.715-0.32-1.472-0.49-2.23-0.49zM42.645 408.704v-356.618l387.488 178.315-387.488 178.304z" />
<glyph unicode="&#xe61d;" d="M410.646 27.872h-309.238c-38.23 0-69.334 31.104-69.334 69.334v191.829c0 38.23 31.104 69.334 69.334 69.334h58.624l25.355 30.186c1.013 1.205 2.506 1.898 4.085 1.898h132.886c1.568 0 3.062-0.693 4.075-1.888l25.546-30.197h58.666c38.23 0 69.334-31.104 69.334-69.334v-191.829c0-38.229-31.104-69.334-69.334-69.334zM101.408 347.702c-32.352 0-58.666-26.315-58.666-58.667v-191.829c0-32.341 26.314-58.666 58.666-58.666h309.238c32.341 0 58.666 26.325 58.666 58.666v191.829c0 32.352-26.325 58.667-58.666 58.667h-61.13c-1.568 0-3.062 0.693-4.075 1.888l-25.558 30.197h-127.925l-25.355-30.186c-1.013-1.206-2.506-1.899-4.085-1.899h-61.109zM256.022 102.261c-53.046 0-96.202 43.082-96.202 96.043 0 52.971 43.157 96.053 96.202 96.053 53.056 0 96.214-43.093 96.214-96.053-0.010-52.96-43.158-96.043-96.214-96.043zM256.022 283.702c-47.168 0-85.536-38.304-85.536-85.387 0-47.072 38.368-85.376 85.536-85.376s85.546 38.304 85.546 85.376c-0.010 47.072-38.379 85.387-85.546 85.387z" />
<glyph unicode="&#xe61e;" d="M410.774 27.872h-309.483c-2.944 0-5.334 2.389-5.334 5.334v295.253c0 1.312 0.48 2.571 1.355 3.552l88.416 99.125c1.013 1.13 2.453 1.781 3.978 1.781h221.067c2.944 0 5.334-2.389 5.334-5.334v-394.378c0-2.954-2.389-5.334-5.334-5.334zM106.624 38.538h298.816v383.702h-213.333l-85.472-95.818v-287.883zM346.795 262.25h-181.322c-2.944 0-5.333 2.389-5.333 5.334s2.389 5.334 5.333 5.334h181.322c2.944 0 5.334-2.389 5.334-5.334s-2.389-5.334-5.334-5.334zM346.795 326.422h-85.205c-2.944 0-5.334 2.389-5.334 5.333s2.389 5.333 5.334 5.333h85.206c2.944 0 5.334-2.389 5.334-5.333s-2.389-5.333-5.334-5.333zM346.795 198.346h-181.322c-2.944 0-5.333 2.389-5.333 5.334s2.389 5.334 5.333 5.334h181.322c2.944 0 5.334-2.389 5.334-5.334s-2.389-5.334-5.334-5.334zM346.795 134.368h-181.322c-2.944 0-5.333 2.389-5.333 5.334s2.389 5.334 5.333 5.334h181.322c2.944 0 5.334-2.389 5.334-5.334s-2.389-5.334-5.334-5.334zM186.635 326.358h-81.078c-2.944 0-5.334 2.389-5.334 5.334s2.389 5.333 5.334 5.333h75.744v86.57c0 2.944 2.389 5.334 5.333 5.334s5.333-2.389 5.333-5.334v-91.904c0-2.944-2.389-5.334-5.333-5.334z" />
<glyph unicode="&#xe61f;" d="M445.984 229.296c-9.040 0-17.68-1.76-25.536-4.928-5.248 57.184-55.152 102.032-116 102.032-14.896 0-29.344-2.816-42.16-7.584-4.976-1.856-6.288-3.76-6.288-7.456v-201.36c0-3.888 3.12-7.12 7.056-7.504 0.176-0.016 181.76-0.112 182.944-0.112 36.448 0 66 28.416 66 63.44s-29.568 63.456-66.016 63.456zM200 102.4h16l8 112.112-8 111.888h-16l-8-111.888zM152 102.4h-16l-8 81.376 8 78.624h16l8-80zM72 102.4h16l8 64-8 64h-16l-8-64zM8 134.4h16l8 32-8 32h-16l-8-32z" />
<glyph unicode="&#xe620;" d="M444 486.4h-376c-37.555 0-68-30.445-68-68v-376c0-37.555 30.445-68 68-68h376c37.555 0 68 30.445 68 68v376c0 37.555-30.445 68-68 68zM81.981 190.38h-11.984l-5.992 23.969 5.992 23.969h11.984l5.992-23.969-5.992-23.969zM129.917 166.412h-11.984l-5.992 47.937 5.992 47.937h11.984l5.992-47.937-5.992-47.937zM177.855 166.412h-11.984l-5.992 60.952 5.992 58.891h11.984l5.992-59.921-5.992-59.921zM225.792 166.412h-11.984l-5.992 83.974 5.992 83.806h11.984l5.992-83.806-5.992-83.974zM398.065 166.4c-0.887 0-136.896 0.072-137.028 0.084-2.948 0.288-5.285 2.709-5.285 5.62v150.822c0 2.768 0.982 4.195 4.71 5.584 9.599 3.572 20.421 5.68 31.579 5.68 45.576 0 82.955-33.592 86.885-76.424 5.885 2.373 12.356 3.691 19.127 3.691v-0.012c27.3 0 49.447-21.296 49.447-47.53s-22.135-47.517-49.435-47.517z" />
<glyph unicode="&#xe621;" d="M256 486.4c-141.385 0-256-114.615-256-256s114.615-256 256-256 256 114.615 256 256-114.615 256-256 256zM82.129 189.311h-12.008l-6.004 22.899 6.004 22.9h12.008l6.004-22.9-6.004-22.899zM130.161 166.411h-12.008l-6.004 45.8 6.004 45.8h12.008l6.004-45.8-6.004-45.8zM178.192 166.411h-12.008l-6.004 58.234 6.004 56.264h12.008l6.004-57.249-6.004-57.249zM226.224 166.411h-12.008l-6.004 80.229 6.004 80.069h12.008l6.004-80.069-6.004-80.229zM398.839 166.4c-0.889 0-137.197 0.068-137.329 0.080-2.954 0.275-5.296 2.587-5.296 5.37v144.096c0 2.645 0.985 4.007 4.719 5.335 9.618 3.412 20.491 5.427 31.671 5.427 45.666 0 83.12-32.094 87.058-73.015 5.896 2.267 12.38 3.526 19.165 3.526v-0.012c27.354 0 49.545-20.346 49.545-45.41s-22.179-45.399-49.533-45.399z" />
<glyph unicode="&#xe622;" d="M256 486.4c-141.385 0-256-114.615-256-256s114.615-256 256-256 256 114.615 256 256-114.615 256-256 256zM402.24 227.746c-31.365-127.030-241.727-180.909-338.503-49.042 37.069-35.371 101.619-38.47 142.554 3.819-24.006-3.51-41.47 20.021-11.978 32.755-26.523-2.923-41.27 11.201-47.317 23.174 6.218 6.511 13.079 9.531 26.344 10.407-29.040 6.851-39.751 21.057-43.046 38.284 8.066 1.921 18.149 3.578 23.656 2.836-25.431 13.295-34.274 33.291-32.875 48.326 45.438-16.866 74.396-30.414 98.613-43.411 8.626-4.591 18.252-12.888 29.107-23.393 13.835 36.534 30.915 74.19 60.169 92.874-0.493-4.236-2.758-8.179-5.764-11.406 8.298 7.535 19.072 12.719 30.027 14.216-1.257-8.22-13.105-12.847-20.249-15.539 5.414 1.688 34.209 14.531 37.348 7.216 3.705-8.328-19.867-12.147-23.872-13.593-2.985-1.004-5.992-2.105-8.936-3.299 36.492 3.634 71.317-26.456 81.489-63.809 0.719-2.687 1.44-5.672 2.1-8.801 13.341-4.978 37.521 0.231 45.313 5.023-5.63-13.315-20.268-23.121-41.865-24.912 10.407-4.324 30.018-6.691 43.544-4.396-8.563-9.193-22.379-17.527-45.859-17.329z" />
<glyph unicode="&#xe623;" d="M256 486.4c-141.385 0-256-114.615-256-256s114.615-256 256-256 256 114.615 256 256-114.615 256-256 256zM165.797 102.075c-20.801 0-37.663 16.861-37.663 37.663 0 20.801 16.862 37.663 37.663 37.663 20.8 0 37.663-16.862 37.663-37.663-0.001-20.802-16.863-37.663-37.663-37.663zM263.096 102.399v0c0 36.053-14.040 69.944-39.531 95.438-25.493 25.49-59.387 39.531-95.438 39.531-0.065 0-0.131-0.003-0.195-0.003v54.029c0.064 0 0.13 0.001 0.195 0.001 104.38 0 188.998-84.616 188.998-188.997h-54.029zM361.969 102.4c0 31.594-6.174 62.213-18.353 91.007-11.776 27.839-28.645 52.853-50.138 74.345-21.493 21.494-46.507 38.363-74.347 50.138-28.795 12.18-59.414 18.355-91.006 18.355-0.065 0-0.131-0.001-0.195-0.001v54.029h0.195c158.99 0 287.875-128.886 287.875-287.873h-54.031z" />
<glyph unicode="&#xe624;" d="M202.48 195.693v14.152l-56.999 0.098v-13.924l17.791-0.053v-95.84h17.835l-0.013 95.567h21.386zM227.369 130.427c0-7.385 0.448-11.076-0.017-12.377-1.446-3.965-7.964-8.156-10.513-0.43-0.427 1.353-0.049 5.44-0.049 12.447l-0.070 51.394h-17.734l0.053-50.578c0.022-7.752-0.172-13.537 0.061-16.164 0.44-4.644 0.286-10.049 4.584-13.133 8.026-5.793 23.391 0.861 27.24 9.123l-0.040-10.547 14.319-0.019v81.318h-17.835v-51.035zM273.628 178.281l0.062 31.592-17.809-0.035-0.089-109.006 14.645 0.219 1.335 6.785c18.715-17.166 30.485-5.404 30.458 15.174l-0.035 42.49c-0.017 16.183-12.129 25.887-28.567 12.781zM288.992 119.931c0-3.524-3.515-6.39-7.805-6.39s-7.797 2.867-7.797 6.39v47.695c0 3.526 3.507 6.408 7.797 6.408 4.289 0 7.805-2.883 7.805-6.408v-47.695zM252.698 283.977c4.343 0 7.876 3.912 7.876 8.698v44.983c0 4.778-3.532 8.684-7.876 8.684-4.338 0-7.903-3.906-7.903-8.684v-44.984c0-4.786 3.565-8.698 7.903-8.698zM256 486.4c-141.385 0-256-114.615-256-256s114.615-256 256-256 256 114.615 256 256-114.615 256-256 256zM287.394 357.103h16.34v-65.764c0-3.564 2.935-6.473 6.505-6.473 3.586 0 6.512 2.909 6.512 6.473v65.764h15.649v-84.5h-19.866l0.334 6.996c-1.354-2.844-3.024-4.971-5.001-6.399-1.988-1.433-4.255-2.127-6.83-2.127-2.928 0-5.381 0.681-7.297 2.026-1.933 1.366-3.366 3.178-4.29 5.418-0.915 2.26-1.476 4.602-1.705 7.037-0.219 2.457-0.351 7.295-0.351 14.556v56.991zM238.564 356.22c3.511 2.769 8.003 4.158 13.471 4.158 4.592 0 8.539-0.901 11.826-2.673 3.305-1.771 5.854-4.083 7.631-6.931 1.801-2.856 3.022-5.793 3.673-8.799 0.66-3.046 0.994-7.643 0.994-13.836v-21.369c0-7.84-0.317-13.606-0.923-17.267-0.599-3.67-1.908-7.072-3.912-10.272-1.988-3.156-4.544-5.52-7.647-7.028-3.137-1.516-6.733-2.259-10.786-2.259-4.531 0-8.341 0.619-11.488 1.933-3.156 1.292-5.59 3.261-7.331 5.858-1.754 2.594-2.985 5.772-3.727 9.468-0.756 3.7-1.113 9.26-1.113 16.666v22.371c0 8.113 0.685 14.446 2.026 19.012 1.345 4.549 3.78 8.211 7.305 10.966zM186.504 390.4l11.946-41.353 11.77 41.239h20.512l-22.16-55.523-0.023-64.81h-18.736l-0.031 64.788-23.566 55.659h20.287zM384.032 109.972c0-21.764-18.882-39.572-41.947-39.572h-172.476c-23.078 0-41.951 17.808-41.951 39.572v90.733c0 21.755 18.873 39.573 41.951 39.573h172.476c23.065 0 41.947-17.819 41.947-39.573v-90.733zM344.652 128.574c-0.009-0.537-0.026-1.142-0.034-1.803v-7.453c0-4-3.297-7.244-7.298-7.244h-2.619c-4.015 0-7.313 3.244-7.313 7.244v19.61h30.617v11.515c0 8.42-0.229 16.832-0.924 21.651-2.188 15.224-23.549 17.64-34.353 9.853-3.384-2.435-5.978-5.695-7.478-10.074-1.522-4.377-2.269-10.363-2.269-17.967v-25.317c0-42.113 51.14-36.162 45.041 0.053l-13.37-0.068zM327.705 162.818c0 4.361 3.586 7.922 7.964 7.922h1.063c4.394 0 7.981-3.56 7.981-7.922l-0.192-9.81h-16.887l0.072 9.81z" />
<glyph unicode="&#xe625;" d="M256 486.4c-141.385 0-256-114.615-256-256s114.615-256 256-256 256 114.615 256 256-114.615 256-256 256zM170.5 375.2c17.394 12.656 50.835 16.277 64.599 13.809 13.768-2.457 20.962-9.581 21.060-18.264l0.781-110.677c0.063-8.688-4.809-16.674-10.843-17.746-6.060-1.054-14.982 4.113-19.888 11.507l-62.75 94.892c-4.869 7.408-14.675 10.674 7.042 26.48zM128.099 177.774c-1.588 8.887 0 51.824 0 51.824 2.645 12.331 12.668 19.866 21.352 16.686l66.734-24.489c8.678-3.18 15.081-11.467 14.224-18.45-0.884-6.983-8.77-15.019-17.574-17.907l-63.173-20.688c-8.803-2.897-19.953 4.135-21.564 13.024zM258.435 85.646c-0.173-8.69-15.628-17.428-24.398-14.478l-46.082 14.817c-8.75 2.95-11.731 18.56-5.73 25.202l44.071 48.907c6 6.632 16.056 11.637 22.393 11.096 6.332-0.541 11.351-8.065 11.178-16.783l-1.432-68.762zM380.76 142.719c-3.871-10.756-24.882-39.447-24.882-39.447-4.976-7.385-23.006-8.688-27.514-1.083l-34.866 59.062c-4.51 7.615-5.367 16.040-1.92 18.708 3.438 2.699 13.606 2.92 22.56 0.544l55.26-14.708c8.956-2.378 15.233-12.291 11.363-23.075zM373.875 226.138l-61.59-10.574c-9.108-1.887-19.829 1.596-23.853 7.767-4.022 6.149-2.406 16.634 3.622 23.234l35.615 39.262c6.027 6.606 16.718 7.55 26.063 0.025 9.356-7.505 26.639-29.535 29.132-37.010 2.526-7.464 2.125-20.235-8.988-22.703z" />
<glyph unicode="&#xe626;" d="M256 486.4c-141.385 0-256-114.615-256-256s114.615-256 256-256 256 114.615 256 256-114.615 256-256 256zM324.18 286.063c-6.66-2.114-71.151-64.321-75.159-77.886-0.784-4.125-0.121-28.596 0.644-41.785l38.807-0.721v-31.154h-0.935l-0.012-0.258c-1.313 0.121-106.983-0.238-115.786 0.060l0.402 2.693v29.381h33.073l0.403 41.369c0 0-51.611 73.906-65.569 86.735h-43.451v31.904h127.552v-1.366c0.102 0 0-3.369 0-3.369v-26.704l-35.188-0c16.298-27.907 35.504-49.844 45.468-66.024l53.74 59.314h-29.022l-3.094 26.322h107.622l-0.791-1.402c0.087 0 0.269-0.026 0.384-0.026l-13.18-24.894h-19.616c-2.536-0.663-4.769-1.833-6.291-2.188zM360.66 127.275l-10.455 3.368-9.672 3.272 5.651 25.195 12.142-4.658 11.103-3.217-8.771-23.96zM373.678 173.405l-19.068 5.897 22.087 111.114c4.243-1.992 37.81-12.983 41.56-13.911l-44.578-103.1z" />
<glyph unicode="&#xe627;" d="M351.791 235.898c0 17.582-6.335 29.748-11.728 39.209-7.204 11.705-13.952 21.615-13.952 33.342 0 13.055 9.879 25.213 23.875 25.213 0.606 0 1.215-0.071 1.822-0.123-25.274 23.185-58.967 37.34-95.978 37.34-49.648 0-93.344-25.49-118.767-64.088 3.343-0.093 6.475-0.167 9.14-0.167 14.881 0 37.899 1.825 37.899 1.825 7.64 0.423 8.577-10.821 0.911-11.726 0 0-7.715-0.897-16.284-1.359l51.776-153.948 31.089 93.269-22.12 60.679c-7.662 0.462-14.924 1.359-14.924 1.359-7.644 0.444-6.756 12.149 0.906 11.726 0 0 23.463-1.825 37.429-1.825 14.858 0 37.898 1.825 37.898 1.825 7.644 0.423 8.551-10.821 0.897-11.726 0 0-7.698-0.897-16.274-1.359l51.385-152.778 14.18 47.356c7.205 18.474 10.822 33.79 10.822 45.957zM258.333 216.272l-42.666-123.928c12.734-3.738 26.211-5.771 40.163-5.771 16.539 0 32.435 2.858 47.188 8.067-0.369 0.599-0.721 1.233-0.994 1.928l-43.692 119.704zM327.299 105.875c42.243 24.622 70.66 70.404 70.66 122.853 0 24.721-6.317 47.946-17.41 68.201 0.642-4.535 0.986-9.387 0.986-14.62 0-14.414-2.718-30.632-10.813-50.91l-43.423-125.523zM256 486.4c-141.385 0-256-114.615-256-256s114.615-256 256-256 256 114.615 256 256-114.615 256-256 256zM255.962 69.964c-88.478 0-160.462 71.979-160.462 160.463 0 88.478 71.983 160.462 160.462 160.462 88.483 0 160.462-71.984 160.462-160.462 0-88.483-71.98-160.463-160.463-160.463zM113.679 228.728c0-56.258 32.708-104.907 80.117-127.921l-67.805 185.776c-7.878-17.691-12.312-37.247-12.312-57.855z" />
<glyph unicode="&#xe628;" d="M256 486.4c-141.385 0-256-114.615-256-256s114.615-256 256-256 256 114.615 256 256-114.615 256-256 256zM384.075 274.779c-1.171-25.218-18.558-59.727-52.248-103.516-34.817-45.736-64.344-68.588-88.459-68.588-14.908 0-27.577 13.947-37.865 41.856-6.905 25.587-13.827 51.156-20.698 76.76-7.663 27.894-15.904 41.832-24.716 41.832-1.869 0-8.596-4.042-20.096-12.194l-12.050 15.69c12.643 11.238 25.085 22.484 37.369 33.73 16.832 14.707 29.451 22.476 37.87 23.254 19.9 1.94 32.142-11.819 36.771-41.276 4.947-31.808 8.398-51.557 10.33-59.325 5.751-26.339 12.056-39.524 18.972-39.524 5.332 0 13.361 8.521 24.111 25.586 10.698 17.050 16.447 30.031 17.211 38.961 1.532 14.732-4.224 22.090-17.211 22.090-6.163 0-12.479-1.359-18.973-4.059 12.615 41.481 36.715 61.615 72.349 60.445 26.44-0.761 38.878-18.024 37.335-51.72z" />
<glyph unicode="&#xe629;" d="M256 486.4c-141.385 0-256-114.615-256-256s114.615-256 256-256 256 114.615 256 256-114.615 256-256 256zM342.805 79.873c-6.286-6.302-13.841-9.463-22.637-9.463h-64.317c-26.425 0-49.017 9.37-67.758 28.197-18.735 18.767-28.094 41.381-28.094 67.863v159.763c0 9.079 3.119 16.703 9.358 22.888 6.225 6.17 13.873 9.279 22.86 9.279 8.739 0 16.26-3.168 22.482-9.463 6.25-6.295 9.393-13.844 9.393-22.671v-46.631h97.823c8.185 0 15.224-2.909 21.065-8.753 5.851-5.844 8.779-15.358 8.779-23.551 0-8.142-2.927-18.67-8.76-24.536-5.827-5.81-12.848-8.746-20.998-8.746h-97.906v-47.549c0-8.861 3.060-16.358 9.245-22.553 6.169-6.195 13.66-9.296 22.471-9.296h64.334c8.802 0 16.375-3.16 22.661-9.447 6.288-6.31 9.43-13.86 9.43-22.678 0-8.81-3.142-16.385-9.43-22.654z" />
<glyph unicode="&#xe62a;" d="M256 486.4c-141.385 0-256-114.615-256-256s114.615-256 256-256 256 114.615 256 256-114.615 256-256 256zM345.067 89.838c-19.192-16.539-59.182-19.626-71.627-19.626-14.163 0-22.516 1.825-33.381 5.514-10.886 3.731-20.16 9.031-27.845 15.815-7.676 6.877-12.994 14.163-15.969 21.871-2.965 7.697-4.456 18.899-4.456 33.585v103.958h-39.059v51.666c36.882 0 58.001 49 58.001 88.14h57.491v-80.091h57.654v-59.715h-57.654v-73.753c0-18.592-0.236-21.414 1.668-26.704 3.815-6.437 11.747-20.038 35.294-20.038 17.94 0 32.258 9.442 39.883 20.038v-60.659z" />
<glyph unicode="&#xe62b;" d="M256 486.4c-141.385 0-256-114.615-256-256s114.615-256 256-256 256 114.615 256 256-114.615 256-256 256zM383.693 179.672c0-24.995-20.339-45.33-45.339-45.33h-4.171c-25.115 0-46.331 20.759-46.331 45.33v50.083c0 7.852-6.077 14.239-13.548 14.239h-58.304c-9.357 0-14.252-5.571-14.252-11.073 0-7.335 6.714-13.877 14.661-14.284l9.048-0.479c24.801-1.284 44.338-19.224 43.55-42.452-0.762-23.083-21.489-40.865-46.202-40.865h-95.178v31.453h95.178c7.812 0 14.576 4.244 14.77 10.451 0.215 6.098-6.099 9.592-13.787 10.003l-9.016 0.479c-24.519 1.265-44.469 21.764-44.469 45.694 0 23.652 19.917 42.18 45.343 42.18h58.314c25.005 0 45.348-20.343 45.348-45.347v-50.083c0-7.392 6.952-13.877 14.877-13.877h4.171c7.656 0 13.884 6.226 13.884 13.877v179.23l31.455-0.051v-179.179z" />
<glyph unicode="&#xe62c;" d="M303.596 232.836c-5.167 3.403-11.422 6.276-18.743 8.649-7.336 2.361-15.505 4.529-24.496 6.469-7.185 1.691-12.351 2.963-15.45 3.846-3.095 0.856-6.15 2.054-9.153 3.6-3.011 1.522-5.351 3.33-7.039 5.417-1.649 2.066-2.469 4.471-2.477 7.345 0.008 4.564 2.413 8.463 7.438 11.822 5.005 3.313 11.631 5.004 19.896 5.004 8.955 0.024 15.387-1.554 19.28-4.577 4.003-3.079 7.457-7.39 10.322-12.914 2.276-3.951 4.384-6.796 6.385-8.584 2.050-1.837 5.012-2.708 8.79-2.708 4.188-0.020 7.774 1.493 10.581 4.452 2.81 2.95 4.246 6.316 4.246 10.029 0 3.99-1.122 8.091-3.334 12.284-2.219 4.177-5.721 8.16-10.5 11.934-4.803 3.785-10.783 6.796-17.983 9.084-7.217 2.268-15.74 3.414-25.587 3.414-12.322 0-23.082-1.719-32.226-5.149-9.156-3.435-16.187-8.351-21.047-14.792-4.863-6.416-7.288-13.786-7.288-22.031 0-8.648 2.292-15.949 6.909-21.821 4.609-5.812 10.811-10.424 18.621-13.786 7.781-3.358 17.41-6.28 28.904-8.79 8.565-1.801 15.409-3.519 20.494-5.134 5.077-1.59 9.161-3.89 12.325-6.892 3.124-2.963 4.657-6.781 4.657-11.583 0-6.014-2.84-10.986-8.741-15.070-5.876-4.052-13.544-6.111-23.056-6.111-6.929 0-12.475 1.017-16.643 3.026-4.221 2.010-7.475 4.594-9.779 7.668-2.329 3.124-4.512 7.031-6.531 11.704-1.682 4.035-3.728 7.096-6.178 9.194-2.466 2.108-5.493 3.172-9.024 3.172-4.298 0-7.947-1.356-10.784-4.051-2.804-2.664-4.245-5.957-4.245-9.735 0-6.401 2.329-12.955 6.921-19.663 4.589-6.699 10.541-12.058 17.875-16.062 10.344-5.603 23.444-8.371 39.272-8.371 13.198 0 24.625 2.034 34.303 6.118 9.654 4.052 17.031 9.718 22.068 16.959 5.037 7.215 7.563 15.385 7.563 24.464 0 7.538-1.454 13.94-4.367 19.188s-6.981 9.58-12.18 12.982zM256 486.4c-141.385 0-256-114.615-256-256s114.615-256 256-256 256 114.615 256 256-114.615 256-256 256zM312.41 102.146c-13.844 0-26.759 3.924-37.719 10.695-6.047-0.953-12.254-1.445-18.557-1.445-65.637 0-118.862 53.209-118.862 118.863 0 6.323 0.517 12.487 1.448 18.548-6.768 10.97-10.69 23.88-10.69 37.726 0 39.68 32.156 71.837 71.837 71.837 13.846 0 26.774-3.915 37.714-10.691 6.049 0.94 12.252 1.465 18.552 1.465 65.661 0 118.878-53.231 118.878-118.886 0-6.313-0.5-12.502-1.453-18.549 6.781-10.96 10.695-23.875 10.695-37.719 0-39.671-32.165-71.844-71.844-71.844z" />
<glyph unicode="&#xe62d;" d="M256 486.4c-141.385 0-256-114.615-256-256s114.615-256 256-256 256 114.615 256 256-114.615 256-256 256zM281.508 159.281c-20.463 0-39.703 10.759-46.285 22.973 0 0-11.014-42.454-13.332-50.654-8.206-28.956-32.336-57.931-34.204-60.3-1.31-1.665-4.206-1.132-4.509 1.046-0.518 3.692-6.671 40.229 0.567 70.031 3.638 14.973 24.374 100.423 24.374 100.423s-6.043 11.758-6.043 29.166c0 27.301 16.275 47.695 36.541 47.695 17.236 0 25.559-12.585 25.559-27.661 0-16.856-11.034-42.045-16.726-65.388-4.754-19.568 10.085-35.51 29.901-35.51 35.895 0 60.076 44.851 60.076 97.988 0 40.37-27.955 70.62-78.837 70.62-57.474 0-93.302-41.693-93.302-88.276 0-16.037 4.881-27.376 12.511-36.129 3.501-4.032 4-5.65 2.728-10.264-0.929-3.396-2.993-11.566-3.874-14.802-1.261-4.669-5.144-6.335-9.488-4.613-26.458 10.512-38.802 38.716-38.802 70.411 0 52.337 45.394 115.119 135.43 115.119 72.351 0 119.955-50.911 119.955-105.569 0-72.294-41.325-126.306-102.241-126.306z" />
<glyph unicode="&#xe62e;" d="M256 486.4c-141.385 0-256-114.615-256-256s114.615-256 256-256 256 114.615 256 256-114.615 256-256 256zM406.793 232.284c-24.147-50.999-90.719-79.197-147.158-62.345 4.615-33.433-7.203-84.139-43.779-96.547-17.455-5.918-36.511-3.25-53.063 3.922-18.061 7.815-8.376 38.51-9.886 54.007 11.011-2.326 18.048-13.481 29.986-8.205 3.858 1.703 6.228 5.848 7.48 10.906 4.042 16.33 1.891 153.724 1.891 153.724 0 5.256 0.302 4.474 5.142 5.316 12.954 2.221 30.589 1.526 43.645 0.507 3.716-0.301 7.407-0.657 11.109-1.113 4.686-0.582 4.143 0.481 4.143-5.177v-60.516c0-7.052 11.448-6.832 18.010-8.367 3.844-0.913 7.776-1.574 11.728-1.974 7.082-0.702 14.274-0.491 21.276 0.752 29.894 0 48.803 38.906 42.259 65.151-14.917 50.607-76.608 66.075-125.812 54.219-52.842-12.759-95.085-69.981-55.225-116.165-11.928-10.172-22.206-22.298-36.124-30.142-3.37-1.906-6.901-3.551-10.558-4.844-2.051 2.127-3.957 4.363-5.728 6.721-3.651 4.794-6.721 9.99-9.284 15.408-11.471 24.284-13.292 52.647-8.502 78.668 7.82 42.346 35.808 73.778 77.003 90.103 68.612 27.154 167.012 16.065 215.505-41.76 25.883-30.865 33.135-65.954 15.942-102.246z" />
<glyph unicode="&#xe62f;" d="M256 486.4c-141.385 0-256-114.615-256-256s114.615-256 256-256 256 114.615 256 256-114.615 256-256 256zM416 209.254h-0.365v-42.747h-319.363v42.747h-0.013v85.494h63.741v-64.348h192v64.349h64v-85.494z" />
<glyph unicode="&#xe630;" d="M256 486.4c-141.385 0-256-114.615-256-256s114.615-256 256-256 256 114.615 256 256-114.615 256-256 256zM159.388 390.952c19.722 0 31.845-13.952 32.215-32.284 0-17.943-12.492-32.311-32.592-32.311h-0.389c-19.308 0-31.842 14.368-31.842 32.311 0 18.332 12.897 32.284 32.609 32.284zM192.073 102.4h-64.073v192h64.073v-192zM416 102.489h-63.77v97.087c0 27.506-11.119 46.257-34.797 46.257-18.092 0-22.348-12.656-27.075-24.868-1.724-4.382-2.165-10.468-2.165-16.583v-101.892h-64.193c0 0 0.881 173.010 0 192.221h57.693v-0.31h6.469v-19.407c9.562 12.087 25.015 24.527 52.495 24.527 43.069 0 75.344-29.25 75.344-92.077v-104.954z" />
<glyph unicode="&#xe631;" d="M256 486.4c-141.385 0-256-114.615-256-256s114.615-256 256-256 256 114.615 256 256-114.615 256-256 256zM352.323 135.572c-33.336 0.137-51.106 16.563-63.45 45.488l-3.522 7.897-30.462 69.875c-10.084 24.742-35.139 41.451-63.415 41.451-38.244 0-69.274-31.24-69.274-69.781 0-38.524 31.030-69.774 69.274-69.774 26.683 0 49.898 15.19 61.465 37.462l12.325-28.594c-17.488-21.449-44.060-35.12-73.791-35.12-52.679 0-95.38 42.961-95.38 96.027 0 53.036 42.701 96.062 95.38 96.062 39.768 0 71.861-21.375 88.166-59.258 1.252-2.929 17.248-40.631 31.223-72.712 8.647-19.856 16.012-33.024 39.933-33.84 23.498-0.805 39.631 13.59 39.631 31.79 0 17.788-12.298 22.062-33.062 29.017-37.315 12.38-56.596 24.815-56.596 54.618 0 29.063 19.645 48.444 51.553 48.444 20.808 0 35.805-9.315 46.2-27.881l-20.394-10.496c-7.688 10.834-16.16 15.108-26.94 15.108-14.988 0-25.668-10.487-25.668-24.441 0-19.802 17.588-22.803 42.212-30.929 33.106-10.862 48.507-23.261 48.507-54.244 0-32.531-27.717-56.221-63.917-56.167z" />
<glyph unicode="&#xe632;" d="M205.849 339.222c-20.751 0.603-34.656-19.464-31.078-45.686 3.59-26.207 23.305-47.942 44.048-48.537 20.738-0.613 34.656 20.168 31.079 46.377-3.579 26.223-23.302 47.25-44.049 47.846zM208.968 187.109c-21.312-1.313-37.396-7.996-48.006-19.904-1.109-2.083-1.983-4.24-2.573-6.456-0.084-0.301-0.151-0.608-0.226-0.911-0.377-1.637-0.606-3.305-0.672-4.997-0-0.010-0-0.019-0.001-0.029-0.010-0.241-0.012-0.485-0.014-0.726 0.122-21.019 22.403-38.491 53.223-38.491 43.178 0 58.395 16.281 58.586 37.197-0.012 2.676-0.349 5.297-0.974 7.841-0.009 0.039-0.024 0.076-0.032 0.115v0.001c-2.688 9.942-10.606 15.99-21.918 23.49-6.101 1.285-20.95 3.882-37.392 2.87zM256 486.4c-141.385 0-256-114.615-256-256s114.615-256 256-256 256 114.615 256 256-114.615 256-256 256zM277.050 296.341c0-16.639-9.306-28.938-22.469-39.106-12.835-9.926-15.275-14.081-15.275-22.522 0-7.188 13.749-19.446 20.953-24.469 19.996-14.015 27.119-27.058 27.759-47.94 0.010-0.3 0.019-0.601 0.026-0.906 0.010-0.376 0.012-0.762 0.014-1.144 0.004-0.284 0.012-0.56 0.012-0.848v-0.329c0-28.428-27.813-56.688-78.189-56.688-44.185 0-81.469 17.785-81.469 46.215 0 0.188 0.008 0.374 0.011 0.56-0.002 0.157-0.011 0.313-0.011 0.471 0 4.868 1.117 9.707 3.2 14.367 4.175 10.010 12.255 19.246 23.095 26.442 13.313 10.993 31.090 17.341 52.644 18.62 3.237 0.192 6.403 0.254 9.468 0.231-4.248 5.072-7.249 11.022-7.249 17.978 0 5.214 1.68 10.363 4.033 14.817-2.403-0.169-4.846 0-7.379 0-36.284 0-60.609 25.992-60.609 57.632 0 30.971 33.581 58.594 69.252 58.594 19.896 0 79.564 0 79.564 0l-17.8-18.511h-25.23c16.727 0 25.645-23.66 25.645-43.464zM384.096 276.39v-67.49h-18.010v67.49h-70.745v18.010h70.745v63.941h18.010v-63.941h70.743v-18.010h-70.743z" />
<glyph unicode="&#xe633;" d="M257.197 376.593c-10.982 0-22.797-5.462-29.553-13.868-7.165-8.831-9.277-20.157-9.277-31.086 0-28.134 16.46-74.767 52.752-74.767 10.551 0 21.963 5.038 28.724 11.751 9.699 9.678 10.56 23.104 10.56 30.679 0 30.237-18.166 77.29-53.207 77.29zM277.881 189.229c-3.797 0-26.589-0.831-44.332-6.736-9.278-3.358-36.298-13.416-36.298-43.256 0-29.822 29.137-51.238 74.296-51.238 40.533 0 62.090 19.322 62.090 45.351 0 21.416-13.933 32.784-46.037 55.473-3.39 0.406-5.494 0.406-9.719 0.406zM256 486.4c-141.385 0-256-114.615-256-256s114.615-256 256-256 256 114.615 256 256-114.615 256-256 256zM347.541 318.611c0-31.086-17.731-45.789-35.461-59.644-5.474-5.457-11.801-11.353-11.801-20.594 0-9.246 6.326-14.264 10.949-18.068l15.209-11.746c18.565-15.547 35.449-29.849 35.449-58.803 0-39.517-38.412-79.426-111.030-79.426-61.21 0-90.778 29.001-90.778 60.094 0 15.124 7.619 36.531 32.523 51.267 26.186 15.943 61.655 18.039 80.631 19.294-5.91 7.574-12.662 15.539-12.662 28.566 0 7.152 2.135 11.355 4.244 16.375-4.685-0.402-9.303-0.831-13.523-0.831-44.74 0-70.075 33.207-70.075 65.964 0 19.335 8.846 40.742 27.020 56.294 24.052 19.727 52.752 23.086 75.553 23.086h86.953l-26.985-15.109h-26.205c9.709-7.977 29.986-24.779 29.986-56.719z" />
<glyph unicode="&#xe634;" d="M214.156 126.22c8.872-23.981 85.592-22.457 82.162 11.981-2.31 23.042-33.394 25.058-58.321 19.154-22.014-5.201-31.309-10.923-23.842-31.135zM224.76 289.1c12.572-9.422 37.623-8.577 50.358 0 38.802 71.304-89.141 76.811-50.358 0zM256 486.4c-141.385 0-256-114.615-256-256s114.615-256 256-256 256 114.615 256 256-114.615 256-256 256zM351.959 341.803c-7.426-1.269-13.779-3.518-21.197-4.791 13.078-33.276-6.483-76.556-39.757-91.019-17.683-7.683-46.83-4.639-47.698-23.949-1.26-27.649 79.334-30.295 95.384-47.917 17.625-19.308 14.833-61.129-5.281-81.423-28.803-29.065-127.064-31.126-159.006 0-26.256 25.567-17.173 88.313 31.797 93.413-20.786 6.626-22.061 53.142-2.655 62.276-75.365 43.988-42.476 153.709 60.963 141.313 23.426-2.797 55.924-17.907 87.449 0v-47.903z" />
<glyph unicode="&#xe635;" d="M256 486.4c-141.385 0-256-114.615-256-256s114.615-256 256-256 256 114.615 256 256-114.615 256-256 256zM160.113 166.656c-35.204 0-63.743 28.539-63.743 63.744s28.539 63.744 63.743 63.744c35.206 0 63.745-28.539 63.745-63.744s-28.539-63.744-63.745-63.744zM351.885 166.656c-35.204 0-63.743 28.539-63.743 63.744s28.539 63.744 63.743 63.744c35.206 0 63.745-28.539 63.745-63.744s-28.539-63.744-63.745-63.744z" />
<glyph unicode="&#xe636;" d="M256 486.4c-141.385 0-256-114.615-256-256s114.615-256 256-256 256 114.615 256 256-114.615 256-256 256zM320.057 327.101h-49.041c-7.42 0-14.918-7.452-14.918-12.99 0-5.524 0-19.487 0-19.487s57.74 0 63.723 0c-2.081-28.41-6.407-64.679-6.407-64.679h-57.566v-159.545h-63.929v159.545h-32.756v64.474h32.756c0 0 0 25.413 0 33.53 0 8.098-1.706 62.336 70.46 62.336h57.678v-63.183z" />
<glyph unicode="&#xe637;" d="M256 486.4c-141.385 0-256-114.615-256-256s114.615-256 256-256 256 114.615 256 256-114.615 256-256 256zM221.941 323.802l-77.6-172.722c-36.677 77.879-11.952 135.821 77.6 172.722zM351.541 324.789c-2.214-90.644-14.642-165.567-53.836-199.274-35.545-28.801-91.011-28.758-122.762-6.672-4.845 3.394-9.156 7.279-12.746 11.661 35.725 77.065 86.157 145.656 144.74 209.516 15.461 20.899 44.087 25.928 44.965 6.865-0.058-7.47-0.18-14.824-0.361-22.095z" />
<glyph unicode="&#xe638;" d="M256 486.4c-141.385 0-256-114.615-256-256s114.615-256 256-256 256 114.615 256 256-114.615 256-256 256zM315.599 371.863l95.658-54.656-60.346-45.746-95.603 56.628 60.291 43.776zM195.114 373.956l60.101-46.339-95.305-54.065-60.166 45.745 95.371 54.657zM357.568 136.017l-103.048-65.861-101.925 65.861v30.536l41.395-23.892 60.53 43.621 59.657-43.621 43.391 24.532v-31.177zM313.736 169.68l-58.184 46.986-58.446-46.986-101.294 55.148 64.114 47.936 95.63-55.623 95.159 54.341 63.831-46.655-100.81-55.148z" />
<glyph unicode="&#xe639;" d="M333.979 327.941c-21.414 17.168-48.458 27.48-77.964 27.48-9.123 0-17.993-1.077-26.585-2.974 10.85-13.901 26.722-36.616 43.152-68.379 23.373 10.035 45.012 24.247 61.397 43.873zM210.731 165.69c-15.098-14.454-24.582-28.433-29.004-35.719 20.811-15.449 46.452-24.645 74.288-24.645 15.63 0 30.564 2.927 44.385 8.19-6.563 34.328-15.176 64.826-24.693 91.505-28-9.128-49.439-24.444-64.977-39.331zM144.702 260.524c0.637-0.010 1.291-0.010 1.941-0.010 23.001-0.018 61.011 2.629 98.758 13.865-18.557 35.208-35.945 57.764-44.627 68.014-32.506-16.091-57.105-45.832-66.080-81.719 2.782-0.089 6.113-0.151 9.985-0.151h0.024zM195.013 190.168c17.303 15.751 40.7 31.576 70.401 41.513-2.378 5.735-4.782 11.255-7.204 16.553-44.478-14.042-88.365-16.135-113.504-16.304h-0.027c-5.506 0-10.088 0.115-13.659 0.239-0.036-0.614-0.058-1.21-0.058-1.799 0.010-30.659 11.167-58.645 29.569-80.436 6.571 10.035 17.831 25.058 34.482 40.233zM329.349 213.373c-8.985 0-17.522-0.651-25.644-1.817 8.753-24.986 16.731-52.983 23.080-84.024 26.704 18.415 45.849 46.892 52.004 79.955-17.774 4.033-34.16 5.885-49.075 5.885h-0.365zM256 486.4c-141.385 0-256-114.615-256-256s114.615-256 256-256 256 114.615 256 256-114.615 256-256 256zM256.016 70.106c-88.522 0-160.276 71.764-160.276 160.266 0 88.531 71.754 160.284 160.276 160.293 88.507-0.010 160.27-71.762 160.279-160.293-0.009-88.502-71.772-160.266-160.279-160.266zM285.049 258.262c2.813-6.216 5.601-12.707 8.371-19.465 11.344 2.003 23.392 3.178 36.214 3.178h0.125v-0.018c15.94 0 33.026-1.852 51.12-5.698-1.228 26.857-11.022 51.443-26.658 71.3-19.644-22.422-43.899-38.21-69.172-49.297z" />
<glyph unicode="&#xe63a;" d="M287.16 230.764h-31.925v-31.5h31.925v31.5zM63.937 198.855h31.925v31.5h-31.925v-31.5zM383.235 199.264h31.926v31.5h-31.926v-31.5zM256 486.4c-141.385 0-256-114.615-256-256s114.615-256 256-256 256 114.615 256 256-114.615 256-256 256zM127.368 167.008h-95.368v95.857h63.862v63.899h31.507v-159.756zM190.805 167.008h-31.506v95.847h31.506v-95.847zM190.805 294.855h-31.506v31.909h31.506v-31.909zM318.666 102.345h-95.367v32.51h63.861v31.899h-63.862v95.857h95.367v-160.266zM351.299 102.345v32.51h63.861v31.899h-63.861v95.857h95.367v-160.266h-95.367z" />
<glyph unicode="&#xe63b;" d="M144.923 181.749l49.041 14.877-21.952 50.585c-41.274-30.208-27.089-65.462-27.089-65.462zM256 486.4c-141.385 0-256-114.615-256-256s114.615-256 256-256 256 114.615 256 256-114.615 256-256 256zM272.495 180.24l-29.939 68.739c16.417 3.090 28.712 2.233 42.239-0.591l10.308-20.988 49.947 15.177c0 0-60.604 48.046-133.197 24.549l40.45-92.476-147.198-47.693c0 0-42.754 105.782 53.719 150.634l-18.643 42.955 45.744 5.855 15.428-35.289c0.942 0.171 1.752 0.43 2.691 0.593 159.003 30.482 212.293-63.79 212.293-63.79l-143.842-47.674z" />
<glyph unicode="&#xe63c;" d="M256.009 361.227h-0.009c-72.138 0-130.827-58.689-130.827-130.827 0-0.051 0.002-0.101 0.002-0.151h130.816v-130.677h0.010c72.135 0 130.823 58.685 130.828 130.82h-130.82v130.837zM256 486.4c-141.385 0-256-114.615-256-256s114.615-256 256-256 256 114.615 256 256-114.615 256-256 256zM256 69.9c-88.5 0-160.5 72-160.5 160.5s72 160.5 160.5 160.5 160.5-72 160.5-160.5-72-160.5-160.5-160.5z" />
<glyph unicode="&#xe63d;" d="M215.328 262.6h45.020c8.584 0 15.556 7.038 15.556 15.483 0 8.478-6.973 15.451-15.557 15.451h-45.019c-8.595 0-15.536-6.973-15.536-15.451 0-8.445 6.941-15.483 15.536-15.483zM301.764 197.4h-91.462c-8.595 0-15.536-6.918-15.536-15.394 0-8.375 6.941-15.411 15.536-15.411h91.462c8.543 0 15.468 7.036 15.468 15.411 0 8.476-6.925 15.394-15.468 15.394zM256 486.4c-141.385 0-256-114.615-256-256s114.615-256 256-256 256 114.615 256 256-114.615 256-256 256zM383.771 183.306c-0.25-44.419-36.524-80.799-81.186-80.799h-93.279c-44.671 0-81.183 36.38-81.183 80.799v94.423c0 44.493 36.513 80.929 81.183 80.929h56.76c20.969-2.476 51.483-20.345 62.719-44.131 3.099-6.704 4.717-7.74 7.281-27.496 1.385-10.201 2.096-17.732 6.665-21.898 6.423-5.849 30.303-1.893 35.012-5.591l3.632-2.799 2.144-4.482 0.752-3.559-0.502-65.398z" />
<glyph unicode="&#xe63e;" d="M366.741 240.786c-5.613 4.405-12.644 6.619-21.022 6.619-9.118 0-16.163-2.363-21.159-7.006-5.048-4.644-8.183-10.956-9.463-18.933h61.131c-0.662 8.492-3.813 14.928-9.488 19.32zM192.184 294.4h-64.184v-39.823h64.59c14.975 0 19.155 11.139 19.155 20.343 0 7.771-4.989 19.481-19.56 19.481zM192.184 206.223h-64.184v-39.823h64.59c14.975 0 19.155 11.139 19.155 20.343 0 7.769-4.989 19.481-19.56 19.481zM256 486.4c-141.385 0-256-114.615-256-256s114.615-256 256-256 256 114.615 256 256-114.615 256-256 256zM242.815 158.124c-9.025-14.712-24.479-19.401-32.042-21.195-7.583-1.794-27.294-2.699-36.139-2.699h-78.597v191.613h95.787c21.248-0.396 36.309-3.936 45.202-17.76 5.331-8.476 7.983-18.655 7.983-30.483 0-12.2-2.683-21.97-8.071-29.383-2.999-4.165-7.428-7.94-13.285-11.359 8.88-3.724 15.614-9.575 20.12-17.637 4.541-8.037 6.803-17.789 6.803-29.238 0-11.848-2.554-22.463-7.763-31.856zM305.933 314.32h79.563v-19.92h-79.563v19.92zM350.053 163.847c20.342 0 25.897 9.834 28.070 13.674h37.695c-0.99-7.829-5.522-15.774-13.671-23.849-12.644-12.836-30.367-19.272-53.131-19.272-18.792 0-37.333 5.43-51.718 16.25-14.339 10.848-21.531 28.454-21.531 52.87 0 22.908 6.463 40.425 19.435 52.622 13.014 12.227 29.813 18.303 50.519 18.303 12.274 0 23.34-2.046 33.217-6.164 9.835-4.136 17.969-10.629 24.376-19.549 5.797-7.865 9.522-16.94 11.255-27.304 0.966-6.033 1.397-15.404 1.215-26.829h-99.998c0-18.68 12.284-30.751 34.267-30.751z" />
<glyph unicode="&#xe63f;" d="M256 486.4c-141.385 0-256-114.615-256-256s114.615-256 256-256 256 114.615 256 256-114.615 256-256 256zM285.099 104.935h-25.197c-55.608 0-100.826 45.243-100.826 100.817v126.017c0 13.937 11.281 25.207 25.207 25.207 13.91 0 25.206-11.269 25.206-25.207v-126.017c0-27.782 22.614-50.406 50.413-50.406h25.197c27.79 0 50.412 19.782 50.412 44.099 0 24.859-13.567 44.107-25.204 44.107h-42.904c-13.941 0-25.207 11.306-25.207 25.207 0 13.926 11.266 25.206 25.207 25.206h42.904c41.695 0 75.617-42.381 75.617-94.519 0-52.108-45.244-94.512-100.825-94.512z" />
<glyph unicode="&#xe640;" d="M256 486.4c-141.385 0-256-114.615-256-256s114.615-256 256-256 256 114.615 256 256-114.615 256-256 256zM267.916 381.797c12.156 12.002 32.705 20.914 49.664 21.512 2.156-16.654-5.81-33.344-17.57-45.365-11.781-12.002-31.067-21.349-50.008-20.095-2.564 16.305 6.978 33.293 17.913 43.948zM364.363 127.265c-14.069-19.19-28.616-38.303-51.594-38.678-22.605-0.401-29.858 19.106-55.654 19.106-25.819 0-33.916-18.731-55.259-19.507-22.176-0.776-39.042 20.742-53.222 39.858-28.972 39.096-51.087 110.587-21.343 158.805 14.719 23.963 41.118 39.107 69.712 39.514 21.781 0.369 42.36-13.714 55.655-13.714 13.336 0 38.31 16.906 64.565 14.433 10.996-0.426 41.841-4.138 61.647-31.207-1.555-0.967-36.815-20.108-36.387-60.020 0.418-47.689 44.74-63.526 45.248-63.734-0.406-1.135-7.091-22.616-23.366-44.856z" />
<glyph unicode="&#xe641;" d="M271.683 284.519c-8.424 0-16.84-0.607-24.119-2.448-13.477-4.33-24.147-13.559-24.147-33.25 0-15.4 7.298-25.864 19.649-25.864 1.7 0 3.363 0.628 4.498 0.628 7.28 1.843 13.996 7.408 17.968 15.989 6.688 12.303 6.151 23.374 6.151 37.538v7.407zM256 486.4c-141.385 0-256-114.615-256-256s114.615-256 256-256 256 114.615 256 256-114.615 256-256 256zM267.769 343.612c-3.955 6.152-11.243 9.249-17.968 9.249h-2.237c-11.214-1.255-21.32-8.014-24.147-21.552-0.554-3.096-2.218-6.152-5.589-6.78l-31.417 4.311c-2.236 0.627-5.617 2.469-4.508 7.386 6.744 38.814 37.043 52.333 65.661 54.174h6.726c15.733 0 35.925-4.897 48.822-17.848 15.685-16.008 14.024-37.541 14.024-60.954v-55.409c0-16.613 6.17-24 12.341-32.601 1.663-3.096 2.236-6.779-0.572-9.249-6.171-6.171-17.94-17.221-24.683-23.433-2.274-1.822-5.044-1.822-7.853-0.567-10.642 9.835-12.36 14.166-18.512 23.375-10.66-12.284-19.639-19.044-30.291-22.808-6.734-1.822-14.023-3.035-23.011-3.035-26.938 0-48.249 18.474-48.249 54.782 0 28.939 14.032 48.629 34.798 57.878 10.643 5.525 23.538 8.014 36.461 9.835 8.417 1.234 16.823 1.862 24.12 2.489v4.917c0 8.601 0.537 18.456-3.915 25.842zM375.815 145.602c-4.091-3.44-8.465-6.522-12.82-9.334-32.82-21.833-75.293-33.264-112.154-33.264-59.386 0-112.493 24.247-152.8 64.81-3.427 3.106-0.606 7.613 3.437 5.202 43.441-28.063 97.154-45.055 152.781-45.055 35.014 0 72.754 7.238 108.736 22.885 2.479 1.006 5.302 2.453 7.783 3.483 5.624 2.726 10.642-4.195 5.036-8.726zM416.182 173.538c0-26.486-10.233-52.478-27.966-62.856-3.917-3.113-7.755-1.329-6.111 3.060 5.64 14.098 13.567 44.229 7.536 51.677-4.308 5.719-16.026 7.695-31.092 6.417-6.894-0.983-13.315-2.244-18.041-3.12-4.308-0.452-5.745 4.399-1.437 7.485 5.588 3.937 11.647 6.996 18.541 9.177 21.411 7.256 52.979 3.086 56.897-1.728 0.81-1.305 1.671-3.912 1.671-7.448v-2.661z" />
<glyph unicode="&#xe642;" d="M256 486.4c-141.385 0-256-114.615-256-256s114.615-256 256-256 256 114.615 256 256-114.615 256-256 256zM298.91 390.178c24.865 0 45.976-20.35 45.976-45.453 0-25.098-21.111-45.443-45.976-45.443-24.885 0-45.691 20.344-45.691 45.443 0 25.103 20.805 45.453 45.691 45.453zM375.217 105.144c-18.176-14.719-20.535-16.568-41.889-34.522-20.593 39.603-45.495 61.422-79.57 70.166-20.002-25.767-52.566-55.874-103.478-69.775-11.351 24.019-14.441 30.822-22.102 48.942 40.719 9.421 55.559 22.32 75.499 60.492-1.431 46.359 10.481 91.927 40.202 110.168 15.453-5.070 41.017-20.317 48.282-22.617-1.022-4.701 2.361-10.054 14.831-12.786 9.478-2.076 31.741-5.338 53.224 14.153 13.177-20.253 23.603-39.835 23.603-39.835s-41.127-40.85-89.818-28.027c-0.317-6.346-0.576-8.372-0.874-16.457 33.137-16.113 67.927-45.699 82.088-79.902z" />
<glyph unicode="&#xe643;" d="M356.631 274.153c-7.008 0-13.74-1.495-20.224-4.432-6.478-2.938-12.591-6.663-18.378-11.169-5.783-4.505-11.291-9.453-16.535-14.821-5.251-5.369-9.986-10.317-14.185-14.823 4.563-5.2 9.464-10.306 14.707-15.327 5.254-5.032 10.846-9.539 16.802-13.505 5.955-4.002 12.167-7.214 18.642-9.634 6.486-2.43 13.399-3.642 20.746-3.642 12.952 0 22.917 4.159 29.933 12.474 6.998 8.317 10.507 18.55 10.507 30.688 0 12.116-3.774 22.517-11.293 31.181-7.527 8.662-17.769 13.011-30.721 13.011zM209.586 243.731c-5.594 5.368-11.464 10.316-17.589 14.821s-12.516 8.231-19.161 11.169c-6.653 2.937-13.309 4.432-19.954 4.432-12.256 0-21.976-4.612-29.148-13.79-7.177-9.179-10.773-19.495-10.773-30.929 0-12.485 3.684-22.695 11.038-30.675 7.352-7.979 17.496-11.959 30.45-11.959 6.64 0 13.297 1.295 19.959 3.906 6.657 2.601 12.952 5.896 18.907 9.885 5.944 3.969 11.548 8.474 16.801 13.495 5.254 5.033 9.975 9.98 14.187 14.823-4.212 4.505-9.125 9.452-14.719 14.822zM256 486.4c-141.385 0-256-114.615-256-256s114.615-256 256-256 256 114.615 256 256-114.615 256-256 256zM423.846 162.632c-7.708-8.834-17.249-15.771-28.626-20.792-11.378-5.032-24.065-7.537-38.070-7.537-10.858 0-21.001 1.642-30.455 4.926-9.454 3.296-18.302 7.633-26.522 13.001-8.229 5.38-16.014 11.611-23.361 18.718-7.361 7.103-14.356 14.464-21.012 22.085-7.348-7.621-14.528-14.981-21.545-22.085-6.986-7.108-14.42-13.338-22.31-18.718-7.869-5.368-16.439-9.705-25.724-13.001-9.282-3.284-19.682-4.926-31.248-4.926-14.35 0-27.132 2.505-38.329 7.537-11.203 5.022-20.832 11.769-28.886 20.274-8.056 8.496-14.181 18.635-18.371 30.404-4.215 11.79-6.304 24.433-6.304 37.949s1.999 26.087 6.040 37.685c4.013 11.623 9.879 21.666 17.582 30.172 7.699 8.485 17.158 15.242 28.361 20.263 11.198 5.022 23.803 7.548 37.815 7.548 11.548 0 22.144-1.747 31.768-5.2 9.623-3.473 18.556-8.064 26.777-13.779 8.22-5.716 15.939-12.306 23.107-19.76 7.167-7.452 14.261-15.338 21.268-23.654 6.656 7.968 13.577 15.768 20.735 23.401 7.169 7.621 14.887 14.296 23.118 20.012 8.221 5.715 17.154 10.306 26.776 13.779 9.623 3.453 20.044 5.2 31.252 5.2 13.997 0 26.596-2.431 37.805-7.284 11.209-4.863 20.651-11.527 28.36-20.012 7.688-8.505 13.654-18.453 17.866-29.885 4.188-11.453 6.295-23.917 6.295-37.433 0-13.527-2.106-26.169-6.295-37.95-4.213-11.789-10.178-22.096-17.866-30.938z" />
<glyph unicode="&#xe644;" d="M393.642 263.366l-0.009 0.038c-1.879 4.094-4.823 7.184-8.385 9.291-3.552 2.119-7.703 3.199-11.873 3.199-3.776 0-7.534-0.894-10.863-2.669 10.594-9.731 19.882-21.416 25.894-35.182 1.924 1.779 3.579 3.956 4.813 6.384 1.603 3.166 2.514 6.726 2.514 10.242 0 2.957-0.644 5.911-2.058 8.67l-0.035 0.028zM149.877 273.087c-3.449 1.699-7.019 2.916-10.541 2.897-0.594 0-1.19-0.043-1.78-0.109h-0.085l-0.085-0.010c-5.059-0.147-10.174-2.485-14.003-6.228-3.838-3.729-6.38-8.77-6.573-14.317v-0.056l-0.009-0.037c-0.040-0.454-0.049-0.904-0.049-1.326 0-3.427 0.993-6.739 2.68-9.754 1.243-2.233 2.877-4.288 4.719-6.059 5.928 13.702 15.161 25.326 25.724 34.999zM307.754 280.319l-0.144 0.056c-4.169 1.354-8.375 2.552-12.616 3.573-12.688 3.048-25.688 4.582-38.68 4.582-17.448 0-34.882-2.74-51.593-8.183-21.702-7.288-42.631-20.109-56.048-39.958v-0.028c-6.809-9.92-10.786-22.226-10.786-34.492 0-4.506 0.537-9.021 1.66-13.423h0.018c2.438-9.863 7.216-18.656 13.403-26.322 6.174-7.676 13.761-14.226 21.734-19.583 1.762-1.135 3.534-2.253 5.351-3.332 23.166-13.677 49.844-19.658 76.314-19.658 4.483 0 8.993 0.151 13.44 0.491 26.673 2.327 53.453 10.666 75.097 27.676l0.009 0.019c6.889 5.377 13.279 11.918 18.324 19.329 5.073 7.421 8.779 15.713 10.433 24.742v0.019h0.010c0.678 3.38 1.003 6.787 1.003 10.223 0 12.201-4.162 24.488-10.909 34.36-13.447 19.802-34.313 32.707-56.019 39.91zM175.678 223.504c0 11.067 8.971 20.037 20.037 20.037s20.037-8.97 20.037-20.037c0-11.067-8.971-20.038-20.037-20.038s-20.037 8.971-20.037 20.038zM316.358 165.664v-0.017c-0.474-1.724-1.303-3.18-2.358-4.367-1.037-1.188-2.251-2.108-3.493-2.885-2.509-1.563-5.18-2.635-7.19-3.813l-0.072-0.045-0.081-0.053c-15.219-7.146-32.297-11.085-49.286-11.085-18.846-0.017-37.613 4.851-53.552 15.603-1.621 0.867-2.858 2.19-3.667 3.663-0.848 1.581-1.26 3.313-1.26 5.055 0 1.928 0.5 3.849 1.518 5.519 0.983 1.608 2.501 2.966 4.445 3.698h-0.010c0.067 0.027 0.13 0.063 0.196 0.080 1.228 0.553 2.488 0.831 3.685 0.831 1.443 0 2.786-0.366 3.997-0.884 1.232-0.5 2.345-1.19 3.407-1.877 2.090-1.385 4.006-2.849 5.685-3.537l0.053-0.017 0.058-0.035c11.152-5.476 23.455-8.093 35.84-8.093 16.51 0 33.132 4.627 47.254 13.077 1.501 0.981 3.18 1.438 4.797 1.438 2.001 0 3.904-0.642 5.538-1.697 1.616-1.063 3.001-2.555 3.858-4.349 0.58-1.206 0.928-2.537 0.928-3.966 0-0.741-0.098-1.483-0.295-2.242zM316.083 203.466c-11.067 0-20.037 8.971-20.037 20.038s8.971 20.037 20.037 20.037 20.038-8.97 20.038-20.037c0-11.067-8.971-20.038-20.038-20.038zM256 486.4c-141.385 0-256-114.615-256-256s114.615-256 256-256 256 114.615 256 256-114.615 256-256 256zM409.783 231.805c-3.892-6.294-9.251-11.547-15.427-15.126 0.404-3.274 0.627-6.568 0.627-9.863 0-17.738-5.781-35.163-15.856-49.134h-0.017c-18.603-26.172-47.163-41.611-76.010-49.401h-0.009l-0.019-0.019c-15.389-3.947-31.246-5.963-47.101-5.963-23.639 0-47.266 4.514-69.299 13.848l-0.010 0.019h-0.018c-22.848 9.967-44.622 25.802-57.976 49.012-7.181 12.381-11.132 26.899-11.132 41.495 0 3.322 0.215 6.616 0.631 9.89-6.017 3.568-11.229 8.653-15.085 14.729-4.134 6.522-6.751 14.142-7.087 22.215v0.128c0.009 11.302 4.648 22.002 11.86 29.892 7.207 7.884 17.053 13.043 27.617 13.043h0.447c1.101 0.080 2.224 0.128 3.338 0.128 5.305 0 10.625-0.909 15.68-2.963l0.027-0.019 0.027-0.010c4.304-1.912 8.59-4.236 12.411-7.444 1.244 0.686 2.586 1.462 4.107 2.068 23.138 14.5 50.039 20.091 76.256 21.7 0.228 13.743 1.826 28.125 8.16 40.709 5.27 10.459 14.424 18.6 25.331 21.415l0.036 0.019 0.063 0.014c4.151 0.852 8.329 1.245 12.5 1.245 6.923 0 14.046 0.383 20.916-0.392 6.443 10.407 17.962 17.358 31.076 17.358 20.142 0 36.529-16.387 36.529-36.53s-16.387-36.53-36.529-36.53c-19.776 0-35.921 15.801-36.502 35.44-5.147 0.587-10.401 0.451-15.438 0.445-1.305 0-2.603-0.070-3.901-0.208h-0.010c-6.736-0.687-12.992-5.178-16.024-11.633v-0.029c-4.608-9.479-5.529-20.563-5.674-31.567 25.815-1.788 51.781-8.329 74.543-22.181h0.027l0.331-0.194c0.43-0.28 1.226-0.739 1.951-1.151 1.563 1.344 3.229 2.726 5.108 3.913 6.907 4.865 15.077 7.28 23.254 7.28 3.642 0 7.276-0.492 10.801-1.444h0.019l0.134-0.037c0.062-0.011 0.098-0.029 0.142-0.029v-0.010c8.33-2.239 15.865-7.307 21.537-14.127 5.672-6.838 9.494-15.49 10.236-24.87v-0.057c0.045-0.733 0.063-1.471 0.063-2.205 0-8.244-2.505-16.162-6.666-22.873zM345.851 338.004c8.749 0 15.866 7.118 15.866 15.866s-7.117 15.866-15.866 15.866c-8.748 0-15.865-7.117-15.865-15.866s7.117-15.866 15.865-15.866z" />
<glyph unicode="&#xe645;" d="M255.962 486.389c-141.136 0-255.962-114.825-255.962-255.962 0-141.144 114.825-255.963 255.962-255.963 141.144 0 255.962 114.818 255.962 255.963 0 141.136-114.818 255.962-255.963 255.962zM28.999 227.718c0 32.873 7.073 64.069 19.639 92.288l108.159-296.342c-75.624 36.711-127.799 114.313-127.799 204.054zM255.751 0.959c-22.257 0-43.755 3.241-64.067 9.204l68.060 197.685 69.695-190.947c0.435-1.108 0.997-2.12 1.586-3.074-23.533-8.308-48.889-12.867-75.273-12.867zM286.976 334.011c13.68 0.737 25.961 2.168 25.961 2.168 12.208 1.445 10.762 19.38-1.433 18.706 0 0-36.753-2.911-60.453-2.911-22.278 0-59.704 2.911-59.704 2.911-12.222 0.674-13.639-17.997-1.446-18.706 0 0 11.584-1.431 23.807-2.168l35.285-96.792-49.593-148.779-82.591 245.571c13.668 0.737 25.974 2.168 25.974 2.168 12.23 1.445 10.735 19.38-1.452 18.706 0 0-36.717-2.912-60.454-2.912-4.252 0-9.248 0.119-14.58 0.267 40.555 61.569 110.258 102.23 189.452 102.23 59.038 0 112.784-22.579 153.1-59.563-0.969 0.084-1.938 0.197-2.906 0.197-22.326 0-38.085-19.393-38.085-40.219 0-18.706 10.764-34.514 22.256-53.185 8.601-15.093 18.707-34.5 18.707-62.546 0-19.408-5.769-43.84-17.262-73.308l-22.62-75.539-81.967 243.704zM454.697 336.509c17.695-32.311 27.772-69.358 27.772-108.791 0-83.665-45.328-156.693-112.713-195.97l69.265 200.229c12.912 32.347 17.248 58.216 17.248 81.21 0 8.349-0.548 16.088-1.572 23.322z" />
<glyph unicode="&#xe646;" d="M68.468 111.172c-37.538 0-67.968-30.43-67.968-67.968s30.43-67.968 67.968-67.968 67.968 30.43 67.968 67.968-30.43 67.968-67.968 67.968zM0.5 486.736c-0.116 0-0.231-0.002-0.348-0.002v-96c0.116 0 0.231 0.002 0.348 0.002 56.135 0 110.539-10.972 161.702-32.612 49.466-20.922 93.911-50.895 132.101-89.085s68.162-82.635 89.084-132.101c21.641-51.163 32.613-105.567 32.613-161.702h96c0 282.494-229.006 511.5-511.5 511.5zM0.5 311.052c-0.116 0-0.231-0.004-0.348-0.004l0.001-96c0.115 0 0.23 0.004 0.347 0.004 64.057 0 124.28-24.945 169.575-70.24 45.296-45.296 70.241-105.519 70.241-169.576h96c0.001 185.467-150.35 335.816-335.816 335.816z" />
<glyph unicode="&#xe647;" d="M146.112 285.937h31.18l0.036 107.855 36.879 92.4h-34.136l-19.588-68.63-19.881 68.82h-33.762l39.219-92.627zM403.892 128.22c0 7.255-5.968 13.18-13.282 13.18h-1.769c-7.285 0-13.253-5.925-13.253-13.18l-0.118-16.326h28.103l0.32 16.326zM211.712 342.38c0-12.324 0.594-21.577 1.851-27.736 1.236-6.151 3.284-11.439 6.202-15.755 2.897-4.323 6.948-7.599 12.2-9.75 5.237-2.187 11.578-3.218 19.119-3.218 6.744 0 12.727 1.236 17.95 3.76 5.164 2.508 9.42 6.443 12.726 11.695 3.335 5.325 5.514 10.986 6.51 17.094 1.009 6.093 1.536 15.688 1.536 28.738v35.562c0 10.306-0.557 17.956-1.654 23.025-1.082 5.002-3.115 9.889-6.113 14.643-2.956 4.74-7.198 8.587-12.698 11.534-5.471 2.948-12.040 4.448-19.682 4.448-9.099 0-16.574-2.312-22.418-6.92-5.865-4.587-9.918-10.679-12.156-18.25-2.231-7.599-3.373-18.138-3.373-31.64v-37.23zM237.612 398.612c0 7.951 5.932 14.453 13.151 14.453 7.227 0 13.107-6.502 13.107-14.453v-74.861c0-7.965-5.88-14.475-13.107-14.475-7.219 0-13.151 6.51-13.151 14.475v74.861zM298.174 146.886c-7.139 0-12.976-4.798-12.976-10.664v-79.374c0-5.866 5.836-10.635 12.976-10.635 7.137 0 12.99 4.769 12.99 10.635v79.374c0 5.866-5.851 10.664-12.99 10.664zM311.924 300.192c1.536-3.73 3.921-6.743 7.139-9.018 3.188-2.238 7.269-3.372 12.142-3.372 4.286 0 8.060 1.156 11.366 3.54 3.291 2.377 6.072 5.917 8.323 10.649l-0.557-11.644h33.060v140.623h-26.039v-109.443c0-5.931-4.871-10.773-10.839-10.773-5.94 0-10.825 4.842-10.825 10.773v109.443h-27.193v-94.844c0-12.083 0.219-20.135 0.584-24.224 0.381-4.053 1.317-7.951 2.838-11.711zM399.519 257.126h-287.031c-38.406 0-69.814-29.652-69.814-65.857v-150.994c0-36.221 31.407-65.858 69.814-65.858h287.031c38.385 0 69.808 29.637 69.808 65.858v150.994c0 36.205-31.422 65.857-69.808 65.857zM101.942 23.89v159.494l-29.609 0.087v23.172l94.857-0.161v-23.551h-35.591l0.023-159.041h-29.68zM238.292 23.919l-23.829 0.031 0.066 17.553c-6.407-13.751-31.977-24.824-45.333-15.185-7.154 5.135-6.898 14.13-7.63 21.856-0.387 4.373-0.065 13.999-0.101 26.902l-0.088 84.17h29.512l0.117-85.531c0-11.659-0.629-18.461 0.081-20.714 4.243-12.858 15.090-5.881 17.496 0.717 0.775 2.164 0.029 8.308 0.029 20.596v84.932h29.681v-135.327zM282.507 36.72l-2.223-11.294-24.372-0.365 0.147 181.406 29.636 0.060-0.103-52.575c27.356 21.81 47.512 5.661 47.542-21.269l0.060-70.714c0.043-34.244-19.544-53.817-50.688-25.248zM351.085 71.257v42.129c0 12.656 1.242 22.617 3.774 29.901 2.5 7.285 6.817 12.713 12.447 16.764 17.978 12.96 53.526 8.938 57.169-16.399 1.156-8.017 1.536-22.015 1.536-36.031v-19.163h-50.952v-32.635c0-6.656 5.486-12.053 12.173-12.053h4.358c6.657 0 12.144 5.397 12.144 12.053v12.404c0.014 1.098 0.043 2.106 0.058 2.999l22.25 0.117c10.151-60.269-74.956-70.173-74.956-0.088z" />
<glyph unicode="&#xe648;" d="M211.871 268.542c7.339-11.87 20.685-20.165 29.751-18.474 9.025 1.724 16.314 14.544 16.218 28.493l-1.168 177.687c-0.146 13.94-10.906 25.376-31.502 29.322-20.588 3.963-70.611-1.851-96.632-22.17-32.484-25.375-17.816-30.618-10.533-42.512l93.866-152.344zM245.499 135.873c-9.48 0.87-24.521-7.167-33.497-17.815l-65.924-78.517c-8.976-10.663-4.517-35.726 8.571-40.461l68.932-23.789c13.119-4.737 36.238 9.294 36.496 23.242l2.142 110.394c0.26 13.996-7.249 26.076-16.72 26.945zM218.156 187.494c1.281 11.211-8.296 24.514-21.278 29.62l-99.826 39.315c-12.99 5.106-27.983-6.99-31.94-26.785 0 0-2.376-68.937 0-83.205 2.408-14.272 19.088-25.563 32.256-20.907l94.499 33.212c13.168 4.637 24.966 17.54 26.288 28.75zM402.629 319.954c-13.978 12.079-29.969 10.565-38.986-0.041l-53.274-63.033c-9.017-10.597-11.433-27.429-5.417-37.302 6.017-9.906 22.055-15.495 35.678-12.468l92.131 16.978c16.624 3.961 17.224 24.465 13.445 36.448-3.731 11.999-29.582 47.369-43.577 59.417zM426.063 127.207l-82.661 23.611c-13.396 3.817-28.606 3.464-33.748-0.869-5.156-4.284-3.876-17.813 2.871-30.038l52.156-94.82c6.746-12.209 33.716-10.115 41.159 1.74 0 0 31.43 46.063 37.219 63.331 5.79 17.313-3.599 33.228-16.995 37.045z" />
<glyph unicode="&#xe649;" d="M468.57 334.556c0.11 0.042 0.339 0.071 0.463 0.071l14.287 21.709c-0.219 0-0.558 0.043-0.723 0.043l1.488 2.357h-200.056l7.702-32.107h54.596l-101.094-99.846c-18.744 27.237-54.874 84.736-85.532 131.711l64.314 0v24.384c0 0 0.19 5.67 0 5.67v2.3h-223.958v-33.135h67.631c26.256-21.595 123.344-166.577 123.344-166.577l-0.756-88.399h-62.219v-29.017l-0.754-4.532c16.56-0.501 64.293 1.029 91.291 1.549h114.483c8.591-0.094 14.837-0.231 17.307-0.433l0.022 0.433h1.758v32h-78.269c-1.442 22.201-2.685 82.156-1.212 89.096 7.539 22.839 128.858 127.555 141.387 131.112 2.863 0.599 7.063 2.57 11.833 3.685h36.903l5.767 7.927zM448.438 130.712l29.339-2.853 34.123 159.070c-5.699 0.235-57.529 6.124-64.259 7.721l0.797-163.938zM442.677 107.18l0.165-35.377 15.553-1.416 16.755-1.299 4.907 34.678-17.668 0.899-19.712 2.514z" />
<glyph unicode="&#xe64a;" d="M437.099 454.616c-71.18 2.343-119.324-37.946-144.526-120.952 12.974 5.404 25.591 8.123 37.903 8.123 25.943 0 37.442-14.724 34.378-44.205-1.524-17.871-13.007-43.845-34.378-77.962-21.474-34.149-37.512-51.198-48.163-51.198-13.82 0-26.411 26.387-37.901 79.089-3.861 15.545-10.754 55.065-20.636 118.713-9.246 58.946-33.701 86.478-73.456 82.596-16.816-1.557-42.024-17.101-75.648-46.531-24.538-22.504-49.391-45.009-74.65-67.495l24.073-31.397c22.971 16.314 36.41 24.402 40.145 24.402 17.603 0 34.065-27.891 49.374-83.707 13.726-51.234 27.553-102.4 41.347-153.599 20.55-55.849 45.86-83.757 75.639-83.757 48.172 0 107.156 45.726 176.709 137.247 67.299 87.625 102.033 156.677 104.37 207.14 3.082 67.428-21.762 101.971-74.581 103.493z" />
<glyph unicode="&#xe64b;" d="M384.149 102.373h-128.85c-17.554 0-32.478 6.178-44.77 18.522-12.325 12.341-18.421 27.281-18.421 44.935v32.969h164.53c16.24 0 30.23 5.846 41.839 17.423 11.624 11.692 17.454 32.665 17.454 48.888 0 16.322-5.83 35.28-17.488 46.922-11.64 11.642-25.665 17.438-41.971 17.438h-164.363v92.905c0 17.589-6.262 32.629-18.714 45.17-12.399 12.542-27.381 18.854-44.795 18.854-17.904 0-33.144-6.196-45.544-18.488-12.433-12.325-18.646-27.514-18.646-45.603v-256.545c0-52.764 18.646-97.819 55.971-135.209 37.341-37.509 82.353-56.179 135.001-56.179h128.814c17.524 0 32.578 6.296 45.103 18.853 12.526 12.491 18.788 27.582 18.788 45.137 0 17.572-6.262 32.611-18.788 45.187-12.524 12.524-27.615 18.822-45.151 18.822z" />
<glyph unicode="&#xe64c;" d="M454.058 266.178c28.724 2.382 48.193 15.423 55.683 33.132-10.365-6.373-42.524-13.301-60.269-6.681-0.877 4.162-1.835 8.132-2.792 11.706-13.527 49.679-59.846 89.698-108.382 84.865 3.916 1.589 7.914 3.053 11.885 4.388 5.325 1.923 36.678 7.003 31.749 18.079-4.176 9.728-42.471-7.352-49.672-9.597 9.501 3.581 25.26 9.735 26.93 20.667-14.569-1.991-28.901-8.885-39.937-18.908 3.998 4.293 7.010 9.536 7.666 15.171-38.91-24.85-61.624-74.932-80.025-123.523-14.438 13.972-27.239 25.008-38.712 31.114-32.209 17.285-70.722 35.303-131.156 57.736-1.862-19.996 9.899-46.591 43.723-64.273-7.325 0.986-20.736-1.219-31.462-3.773 4.382-22.912 18.627-41.805 57.251-50.918-17.642-1.163-26.767-5.182-35.036-13.841 8.043-15.923 27.656-34.709 62.931-30.82-39.225-16.935-15.998-48.234 15.93-43.565-54.444-56.244-140.294-52.123-189.596-5.080 128.712-175.385 408.493-103.724 450.21 65.225 31.23-0.261 49.605 10.823 60.994 23.050-17.99-3.053-44.072 0.095-57.914 5.846z" />
<glyph unicode="&#xe64d;" d="M290.702 102.736c-3.176 8.445-2.783 12.952-2.783 42.639v117.774h96.137v95.357h-96.137v127.894h-95.863c0-62.5-35.215-140.748-96.716-140.748v-82.503h65.13v-166.005c0-23.451 2.487-41.341 7.43-53.632 4.959-12.306 13.829-23.944 26.627-34.925 12.816-10.835 28.281-19.297 46.431-25.253 18.118-5.892 32.046-8.805 55.663-8.805 20.751 0 87.435 4.93 119.435 31.34v96.867c-12.714-16.924-36.589-32-66.502-32-39.264 0-52.494 21.721-58.853 32z" />
<glyph unicode="&#xe64e;" d="M455.156 454.783v-360.401c0-16.971-13.793-30.748-30.762-30.748h-14.34c-16.955 0-32.75 13.777-32.75 30.748v105.149c0 48.348-39.332 87.681-87.68 87.681h-116.61c-48.34 0-87.672-34.307-87.672-81.349 0-46.247 38.637-85.927 86.084-88.375l18.029-0.96c16.979-0.909 30.897-13.264 30.409-27.091-0.439-13.995-15.374-25.803-32.535-25.803h-187.327v-56.899h187.327c47.802 0 87.921 36.272 89.392 80.819 1.522 44.82-36.29 83.312-84.248 85.792l-18.088 0.959c-17.4 0.894-32.162 15.333-32.162 31.558 0 15.68 14.539 25.145 31.5 25.145h116.593c16.973 0 30.089-14.507 30.089-31.477v-105.149c0-48.346 41.3-87.647 89.649-87.647h14.34c48.315 0 87.664 39.3 87.664 87.647v360.308l-56.901 0.093z" />
<glyph unicode="&#xe64f;" d="M493.522 230.391c0 131.182-106.33 237.545-237.529 237.545-12.588 0-24.982-1.049-37.070-2.927-21.862 13.538-47.69 21.361-75.357 21.361-79.284 0-143.536-64.252-143.536-143.536 0-27.667 7.838-53.463 21.36-75.381-1.863-12.112-2.894-24.426-2.894-37.061 0-131.183 106.346-237.497 237.496-237.497 12.594 0 24.998 0.983 37.077 2.887 21.901-13.531 47.705-21.369 75.366-21.369 79.283 0 143.552 64.284 143.552 143.552 0 27.661-7.822 53.465-21.369 75.366 1.904 12.079 2.902 24.449 2.902 37.062zM368.774 122.383c-10.063-14.467-24.805-25.787-44.094-33.885-19.338-8.161-42.173-12.224-68.542-12.224-31.627 0-57.803 5.532-78.47 16.724-14.652 7.999-26.546 18.708-35.715 32.094-9.177 13.404-13.829 26.498-13.829 39.287 0 7.548 2.879 14.128 8.483 19.45 5.669 5.387 12.959 8.096 21.547 8.096 7.056 0 13.105-2.127 18.031-6.337 4.894-4.193 8.983-10.305 12.345-18.37 4.031-9.338 8.394-17.144 13.048-23.385 4.605-6.144 11.103-11.305 19.538-15.32 8.329-4.017 19.409-6.048 33.255-6.048 19.007 0 34.327 4.113 46.069 12.208 11.79 8.16 17.465 18.094 17.465 30.111 0 9.596-3.063 17.226-9.303 23.144-6.322 5.998-14.483 10.596-24.628 13.772-10.16 3.226-23.837 6.66-40.948 10.257-22.966 5.017-42.206 10.853-57.754 17.565-15.603 6.716-27.998 15.933-37.207 27.544-9.224 11.733-13.805 26.322-13.805 43.602 0 16.474 4.846 31.199 14.564 44.021 9.709 12.869 23.756 22.691 42.053 29.554 18.273 6.853 39.771 10.289 64.391 10.289 19.675 0 36.707-2.291 51.123-6.822 14.387-4.573 26.337-10.588 35.933-18.152 9.548-7.54 16.546-15.499 20.981-23.845 4.419-8.379 6.661-16.572 6.661-24.546 0-7.419-2.87-14.145-8.483-20.039-5.611-5.91-12.772-8.934-21.144-8.894-7.547 0-13.467 1.742-17.563 5.411-3.999 3.572-8.209 9.257-12.757 17.152-5.724 11.039-12.627 19.652-20.627 25.804-7.774 6.040-20.628 9.193-38.521 9.145-16.514 0-29.756-3.38-39.755-10-10.041-6.71-14.845-14.499-14.863-23.619 0.017-5.741 1.654-10.548 4.951-14.676 3.371-4.17 8.049-7.782 14.064-10.823 6-3.088 12.104-5.483 18.29-7.192 6.192-1.765 16.513-4.306 30.867-7.685 17.967-3.879 34.287-8.209 48.947-12.927 14.63-4.742 27.128-10.482 37.45-17.281 10.387-6.798 18.515-15.458 24.337-25.941 5.822-10.485 8.724-23.274 8.724-38.337 0-18.142-5.048-34.465-15.111-48.883z" />
<glyph unicode="&#xe650;" d="M267.702 486.4c-135.514 0-203.839-100.197-203.839-183.724 0-50.583 18.579-95.597 58.402-112.372 6.536-2.749 12.381-0.091 14.279 7.361 1.325 5.164 4.431 18.204 5.83 23.624 1.913 7.363 1.162 9.944-4.107 16.38-11.483 13.968-18.829 32.064-18.829 57.659 0 74.344 53.927 140.883 140.431 140.883 76.583 0 118.657-48.276 118.657-112.707 0-84.802-36.392-156.383-90.42-156.383-29.827 0-52.161 25.445-45.006 56.672 8.569 37.255 25.175 77.456 25.175 104.356 0 24.062-12.529 44.147-38.469 44.147-30.504 0-55-32.548-55-76.119 0-27.782 9.097-46.546 9.097-46.546s-31.209-136.374-36.686-160.269c-10.894-47.563-1.635-105.874-0.853-111.765 0.456-3.476 4.814-4.327 6.786-1.67 2.813 3.781 39.131 50.022 51.483 96.234 3.489 13.087 20.066 80.841 20.066 80.841 9.906-19.492 38.866-36.663 69.664-36.663 91.686 0 153.886 86.2 153.886 201.577 0 87.232-71.651 168.483-180.547 168.483z" />
<glyph unicode="&#xe651;" d="M127.031 463.892c-65.85-26.096-110.589-76.34-123.088-144.030-7.657-41.593-4.747-86.93 13.59-125.75 4.097-8.658 9.004-16.965 14.841-24.629 2.83-3.769 5.877-7.342 9.156-10.743 5.845 2.070 11.489 4.699 16.877 7.745 22.249 12.54 38.678 31.924 57.744 48.183-63.717 73.823 3.808 165.292 88.275 185.687 78.653 18.953 185.257-13.766 209.102-94.659 9.863-33.52 3.399-70.568-23.926-94.829-14.286-12.698-32.454-21.101-51.617-24.5-11.192-1.988-22.69-2.324-34.010-1.201-6.317 0.639-12.603 1.697-18.746 3.157-10.488 2.454-28.787 2.103-28.787 13.374v132.7c0 9.044 0.866 7.344-6.624 8.275-5.916 0.728-11.817 1.299-17.757 1.779-20.87 1.628-42.663 2.742-63.372-0.81-7.738-1.346-8.219-0.096-8.219-8.498 0 0 2.639-232.408-3.821-258.513-2.001-8.085-5.792-14.708-11.958-17.43-19.082-8.433-35.927 9.396-53.526 13.115 2.412-24.772-13.069-73.836 15.802-86.329 26.459-11.464 56.918-15.73 84.821-6.271 58.464 19.835 77.356 84.904 69.979 138.344 90.215-26.937 196.631 18.137 235.228 99.656 27.483 58.013 15.89 130.088-25.481 179.425-77.516 92.431-234.807 110.156-344.481 66.752z" />
<glyph unicode="&#xe652;" d="M445.713 230.794h-379.455v95.605h-66.258v-162.969h512v162.969h-66.287z" />
<glyph unicode="&#xe653;" d="M80.111 454.4c-29.028 0-48.023-20.547-48.023-47.545 0-26.424 18.459-47.584 46.893-47.584h0.573c29.601 0 47.999 21.16 47.999 47.584-0.543 26.998-18.398 47.545-47.442 47.545zM32 326.4h96v-320.99h-96v320.99zM355.631 334.222c-58.274 0-84.318-32.947-98.883-55.996v-1.094h-0.726c0.211 0.357 0.485 0.713 0.726 1.094v48.031h-96.748c1.477-31.819 0-320.847 0-320.847h96.748v171.241c0 10.129 0.742 20.207 3.633 27.468 7.928 20.224 25.965 41.185 56.305 41.185 39.705 0 67.576-31.057 67.576-76.611v-163.283h97.717v176.313c0 104.053-54.123 152.499-126.347 152.499z" />
<glyph unicode="&#xe654;" d="M434.365 248.674c-39.367 12.99-67.486 17.788-67.486 49.446 0 22.31 17.073 39.075 41.037 39.075 17.233 0 30.779-6.832 43.067-24.154l32.608 16.78c-16.617 29.683-40.594 44.575-73.863 44.575-51.012 0-82.421-30.985-82.421-77.448 0-47.648 30.823-67.528 90.481-87.322 33.195-11.118 52.856-17.951 52.856-46.391 0-29.098-25.792-52.108-63.36-50.823-38.241 1.303-50.017 22.356-63.842 54.099-22.342 51.291-47.914 111.565-49.916 116.247-26.070 60.565-77.375 94.739-140.955 94.739-84.221 0-152.488-68.787-152.488-153.578 0-84.838 68.267-153.522 152.488-153.522 47.531 0 90.014 21.856 117.972 56.147l-19.706 45.717c-18.492-35.608-55.607-59.892-98.266-59.892-61.142 0-110.751 49.96-110.751 111.55 0 61.618 49.608 111.563 110.751 111.563 45.205 0 85.26-26.713 101.383-66.269l48.701-111.711 5.63-12.625c19.738-46.243 48.147-72.504 101.442-72.723 57.875-0.088 102.186 37.786 102.186 89.796 0 49.534-24.621 69.358-77.551 86.723z" />
<glyph unicode="&#xe655;" d="M416.146 326.896v95.504h-32.146v-95.504h-95.504v-32.146h95.504v-95.504h32.145v95.504h95.504v32.146h-95.504zM287.396 422.4c0 0-103.279 0-137.717 0-61.745 0-119.869-48.332-119.869-102.524 0-55.364 42.105-100.843 104.909-100.843 4.385 0 8.613-0.296 12.772 0-4.074-7.794-6.982-16.803-6.982-25.925 0-12.17 5.192-22.583 12.545-31.46-5.303 0.046-10.783-0.067-16.386-0.402-37.307-2.236-68.080-13.344-91.121-32.581-18.765-12.586-32.751-28.749-39.977-46.265-3.605-8.154-5.538-16.62-5.538-25.14 0-0.276 0.013-0.547 0.018-0.82-0.005-0.327-0.018-0.654-0.018-0.983 0-49.744 64.534-80.863 141.013-80.863 87.197 0 135.337 49.447 135.337 99.192 0 0.123-0.003 0.241-0.003 0.363 0 0.072 0.003 0.142 0.003 0.213 0 0.5-0.014 0.983-0.019 1.478-0.007 0.672-0.012 1.346-0.026 2.009-0.012 0.532-0.029 1.058-0.047 1.583-1.108 36.537-13.435 59.361-48.048 83.887-12.469 8.782-36.267 30.231-36.267 42.81 0 14.769 4.221 22.041 26.439 39.409 22.782 17.79 38.893 39.309 38.893 68.424 0 34.65-15.439 76.049-44.392 76.049h43.671l30.81 32.391zM201.754 124.154c19.347-13.333 32.891-24.081 37.486-41.754l0-0.001c0.018-0.068 0.039-0.135 0.056-0.203 1.069-4.522 1.645-9.18 1.666-13.935-0.325-37.181-26.35-66.116-100.199-66.116-52.713 0-90.82 31.053-91.028 68.414 0.005 0.43 0.008 0.863 0.025 1.292 0.001 0.017 0.001 0.034 0.002 0.051 0.114 3.006 0.505 5.969 1.15 8.881 0.127 0.54 0.241 1.082 0.388 1.617 1.008 3.942 2.502 7.774 4.399 11.478 18.146 21.163 45.655 33.045 82.107 35.377 28.12 1.799 53.515-2.818 63.95-5.101zM154.649 232.147c-35.475 1.059-69.194 39.691-75.335 86.271-6.121 46.61 17.663 82.276 53.154 81.203 35.483-1.060 69.215-38.435 75.336-85.043 6.121-46.583-17.685-83.517-53.154-82.43z" />
<glyph unicode="&#xe656;" d="M431.474 486.4h-139.076c-36.469 0-82.376-5.372-120.846-36.925-29.069-24.875-43.219-59.114-43.219-90.040 0-52.392 40.522-105.507 112.082-105.507 6.749 0 14.135 0.686 21.632 1.328-3.378-8.029-6.793-14.751-6.793-26.189 0-20.838 10.801-33.575 20.253-45.692-30.35-2.007-87.080-5.358-128.964-30.86-39.833-23.57-52.019-57.808-52.019-81.997 0-49.736 47.292-96.121 145.196-96.121 116.149 0 177.591 63.83 177.591 127.039 0 46.312-27.009 69.188-56.7 94.055l-24.327 18.787c-7.394 6.081-17.512 14.11-17.512 28.898 0 14.78 10.119 24.211 18.875 32.941 28.358 22.159 56.716 45.677 56.716 95.397 0 51.086-32.433 77.961-47.959 90.719h41.914l43.158 24.166zM372.122 75.198c0-41.633-34.476-72.537-99.31-72.537-72.228 0-118.831 34.254-118.831 81.953 0 47.728 43.218 63.815 58.056 69.187 28.38 9.445 64.834 10.774 70.908 10.774 6.756 0 10.119 0 15.542-0.649 51.351-36.29 73.635-54.474 73.635-88.726zM318.074 291.561c-10.815-10.737-29.070-18.795-45.945-18.795-58.048 0-84.376 74.589-84.376 119.587 0 17.481 3.378 35.597 14.838 49.72 10.808 13.445 29.706 22.182 47.27 22.182 56.049 0 85.102-75.26 85.102-123.623 0-12.116-1.378-33.59-16.889-49.072z" />
<glyph unicode="&#xe657;" d="M257.376 484.627c-150.080 19.783-197.801-155.315-88.452-225.514-28.156-14.577-26.307-88.809 3.852-99.382-71.051-8.139-84.23-108.272-46.135-149.074 46.345-49.673 188.912-46.383 230.706 0 29.183 32.385 33.231 99.127 7.659 129.94-23.285 28.121-140.22 32.344-138.393 76.469 1.26 30.814 43.549 25.957 69.207 38.218 48.276 23.081 76.658 92.152 57.683 145.254 10.762 2.031 19.981 5.621 30.756 7.645v76.446c-45.741-28.578-92.894-4.463-126.883 0zM303.526 83.264c4.979-54.958-106.335-57.39-119.209-19.12-10.835 32.256 2.651 41.387 34.594 49.688 36.165 9.421 81.266 6.203 84.615-30.567zM272.769 324.077c-18.48-13.689-54.827-15.036-73.067 0-56.269 122.579 129.365 113.791 73.067 0z" />
<glyph unicode="&#xe658;" d="M112.099 358.839c-61.91 0-112.099-50.188-112.099-112.098s50.188-112.099 112.099-112.099 112.099 50.188 112.099 112.099-50.189 112.099-112.099 112.099zM400.099 358.839c-61.91 0-112.099-50.188-112.099-112.098s50.188-112.099 112.099-112.099 112.099 50.188 112.099 112.099-50.188 112.099-112.099 112.099z" />
<glyph unicode="&#xe659;" d="M192.191 387.257c0-12.909 0-60.485 0-60.485h-63.638v-96.181h63.637v-256.135h97.069v256.135h84.168c0 0 6.674 51.322 9.885 96.508-9.231 0-93.666 0-93.666 0s0 34.136 0 42.921c0 8.807 11.565 20.661 23.010 20.661h71.791v95.719h-83.57c-111.317 0-108.686-86.262-108.686-99.142z" />
<glyph unicode="&#xe65a;" d="M390.038 448.756c-117.219-127.778-218.13-265.021-289.613-419.22 7.184-8.771 15.811-16.542 25.505-23.333 63.531-44.192 174.512-44.278 245.636 13.351 78.424 67.442 103.289 217.357 107.721 398.728 0.361 14.548 0.606 29.262 0.721 44.209-1.756 38.147-59.034 28.082-89.969-13.735zM64.698 70.703l155.271 345.601c-179.187-73.836-228.658-189.773-155.271-345.601z" />
<glyph unicode="&#xe65b;" d="M257.115 213.296l-149.814 87.138-100.084-74.829 158.125-86.088zM13.354 373.077l93.921-71.411 148.776 84.398-93.82 72.336zM256.195 386.798l149.239-88.398 94.204 71.411-149.327 85.323zM256.042 213.296l91.362-73.779 157.37 86.088-99.642 72.83zM415.83 135.636l-67.736-38.297-93.127 68.094-94.491-68.094-64.618 37.297v-47.668l159.11-102.812 160.863 102.812z" />
<glyph unicode="&#xe65c;" d="M256.014 486.371c-141.381-0.014-255.979-114.614-255.979-256.007 0-141.351 114.599-255.964 255.979-255.964 141.356 0 255.971 114.613 255.986 255.964-0.014 141.393-114.629 255.993-255.986 256.007zM256.014 430.082c47.124 0 90.317-16.469 124.517-43.889-26.167-31.345-60.728-54.043-98.058-70.071-26.24 50.729-51.59 87.009-68.918 109.21 13.723 3.029 27.888 4.75 42.459 4.75zM167.788 409.274c13.865-16.369 41.636-52.394 71.274-108.626-60.285-17.947-120.992-22.173-157.727-22.144-1.038 0-2.084 0-3.1 0.015h-0.037c-6.185 0-11.504 0.099-15.948 0.241 14.335 57.315 53.622 104.815 105.538 130.514zM56.29 230.364c0 0.939 0.035 1.892 0.092 2.873 5.703-0.199 13.021-0.383 21.815-0.383h0.043c40.15 0.27 110.242 3.612 181.28 26.040 3.868-8.463 7.707-17.28 11.505-26.438-47.436-15.871-84.803-41.144-112.439-66.302-26.594-24.235-44.577-48.228-55.072-64.254-29.388 34.801-47.209 79.499-47.224 128.465zM256.014 30.649c-44.458 0-85.409 14.688-118.647 39.363 7.062 11.635 22.209 33.962 46.322 57.046 24.817 23.779 59.056 48.238 103.777 62.817 15.201-42.608 28.955-91.318 39.438-146.143-22.073-8.407-45.924-13.083-70.889-13.083zM369.041 66.116c-10.14 49.578-22.883 94.292-36.861 134.198 12.971 1.863 26.608 2.901 40.957 2.901h0.583c23.822 0 49.992-2.958 78.378-9.401-9.828-52.805-40.406-98.286-83.056-127.699zM373.791 248.867v0.029h-0.198c-20.479 0-39.721-1.877-57.84-5.077-4.423 10.794-8.876 21.162-13.37 31.088 40.365 17.706 79.103 42.922 110.476 78.733 24.974-31.715 40.617-70.981 42.579-113.874-28.899 6.143-56.188 9.101-81.647 9.101z" />
<glyph unicode="&#xe65d;" d="M191.5 391.812h-32.519v-32.871h32.519v32.871zM160 166.749h32v160.049h-32v-160.049zM96.344 327.132h-96.619v-161.383h128.137v225.228h-31.519v-63.845zM96.507 199.732h-64.293v94.132h64.293v-94.132zM224.118 166.749h95.113v-32.026h-94.613v-33.82h129.119v226.228h-129.619v-160.383zM256.031 293.864h63.293v-94.132h-63.293v94.132zM382.881 166.749h94.613v-32.026h-94.613v-33.82h129.119v226.228h-129.119v-160.383zM416.294 293.864h61.293v-94.132h-61.293v94.132z" />
<glyph unicode="&#xe65e;" d="M173.043 334.636c-1.5-0.26-2.792-0.673-4.298-0.946l-24.632 56.344-73.038-9.347 29.767-68.585c-154.035-71.612-85.77-240.51-85.77-240.51l235.025 76.149-64.585 147.655c115.906 37.514 212.67-39.197 212.67-39.197l-79.746-24.232-16.461 33.511c-21.596 4.508-41.228 5.878-67.44 0.944l47.803-109.755 229.664 76.121c0 0-85.085 150.518-338.959 101.85zM78.647 159.077c0 0-22.649 56.289 43.253 104.519l35.050-80.767-78.302-23.752z" />
<glyph unicode="&#xe65f;" d="M399.139 442.675c-20.424 13.788-42.958 24.738-67.024 32.214-24.067 7.485-49.637 11.54-76.109 11.511-35.289 0.029-69.031-7.16-99.668-20.123-45.944-19.444-85.016-51.886-112.629-92.729-13.788-20.424-24.723-42.957-32.199-67.039-7.499-24.052-11.525-49.645-11.511-76.115-0.015-35.29 7.16-69.001 20.122-99.659 19.443-45.938 51.886-85.002 92.728-112.594 20.425-13.803 42.958-24.731 67.040-32.207 24.052-7.507 49.645-11.517 76.115-11.517 35.26 0 69.001 7.154 99.644 20.115 45.967 19.437 85.017 51.865 112.623 92.728 13.774 20.424 24.746 42.958 32.192 67.039 7.492 24.053 11.517 49.623 11.517 76.094 0.014 35.303-7.154 69.031-20.13 99.667-19.422 45.959-51.88 85.001-92.714 112.615zM459.986 144.243c-16.781-39.7-44.889-73.514-80.253-97.404-17.651-11.96-37.117-21.397-57.897-27.842-20.808-6.46-42.883-9.954-65.829-9.969h-0.030v221.13h-221.344v0.236c0 30.622 6.178 59.702 17.379 86.174 16.782 39.698 44.889 73.55 80.223 97.425 17.667 11.938 37.139 21.361 57.926 27.827 20.786 6.474 42.876 9.947 65.844 9.947v-221.373h221.365c0-30.585-6.208-59.668-17.387-86.151z" />
<glyph unicode="&#xe660;" d="M506.226 282.688l-7.26 5.595c-9.409 7.39-57.147-0.517-69.985 11.174-9.135 8.327-10.558 23.382-13.324 43.773-5.126 39.489-8.36 41.558-14.553 54.963-22.461 47.542-83.454 83.261-125.369 88.21h-113.459c-89.292 0-162.277-72.832-162.277-161.768v-188.74c0-88.791 72.985-161.509 162.277-161.509h186.452c89.276 0 161.784 72.718 162.286 161.509l1.001 130.721-1.503 7.115-4.286 8.958zM164.323 356.226h89.987c17.157 0 31.094-13.938 31.094-30.885 0-16.882-13.937-30.95-31.094-30.95h-89.988c-17.181 0-31.055 14.069-31.055 30.95 0 16.947 13.874 30.885 31.055 30.885zM347.144 105.482h-182.821c-17.181 0-31.055 14.068-31.055 30.805 0 16.945 13.874 30.774 31.055 30.774h182.821c17.076 0 30.918-13.828 30.918-30.774 0-16.738-13.842-30.805-30.918-30.805z" />
<glyph unicode="&#xe661;" d="M208.154 241.744c10.474 5.469 18.397 11.508 23.761 18.17 9.636 11.857 14.434 27.486 14.434 47.002 0 18.92-4.743 35.203-14.279 48.761-15.906 22.114-42.844 33.374-80.846 34.008h-150.748v-319.303h140.572c15.82 0 30.508 1.448 44.067 4.318 13.528 2.87 25.286 8.206 35.228 16.029 8.834 6.746 16.172 15.139 22.081 25.073 9.314 15.026 13.883 32.007 13.883 50.958 0 18.315-4.047 33.914-12.167 46.767-8.058 12.899-20.104 22.259-35.986 28.216zM148.107 134.589h-84.922v63.701h84.274c23.308 0 31.288-18.731 31.288-31.161 0-14.724-6.685-32.54-30.641-32.54zM148.107 261.965h-84.922v63.701h84.274c23.308 0 31.288-18.732 31.288-31.161 0-14.724-6.685-32.54-30.641-32.54zM336.231 358.4h127.269v-31.864h-127.269v31.864zM510.003 209.593c-2.772 16.578-8.731 31.095-18.004 43.676-10.249 14.268-23.26 24.656-38.992 31.27-15.796 6.589-33.499 9.861-53.133 9.861-33.121 0-59.993-9.72-80.808-29.278-20.75-19.51-31.088-47.532-31.088-84.174 0-39.057 11.504-67.219 34.44-84.572 23.008-17.305 52.668-25.994 82.728-25.994 36.41 0 64.762 10.296 84.986 30.826 13.036 12.919 20.287 25.631 21.869 38.151h-60.297c-3.474-6.142-12.361-21.871-44.901-21.871-35.164 0-54.813 19.31-54.813 49.188h159.957c0.291 18.279-0.399 33.267-1.943 42.917zM350.887 209.655c2.049 12.759 7.063 22.857 15.137 30.285 7.99 7.427 19.262 11.206 33.846 11.206 13.402 0 24.647-3.541 33.628-10.588 9.075-7.026 14.113-17.319 15.174-30.903h-97.785z" />
<glyph unicode="&#xe662;" d="M332.807 358.406h-102.399c-28.322 0-51.207-22.916-51.207-51.207 0-28.237 22.886-51.207 51.207-51.207h102.399c23.639 0 51.2-39.102 51.2-89.604 0-49.401-45.957-89.587-102.414-89.587h-51.185c-56.472 0-102.414 45.957-102.414 102.399v256.006c0 28.314-22.948 51.207-51.207 51.207-28.291 0-51.208-22.894-51.208-51.207v-256.006c0-112.899 91.86-204.813 204.828-204.813h51.185c112.914 0 204.828 86.144 204.828 192.001 0 105.921-68.913 192.018-153.615 192.018z" />
<glyph unicode="&#xe663;" d="M282.512 451.181c19.76 19.511 53.164 34 80.731 34.971 3.505-27.074-9.445-54.204-28.56-73.744-19.151-19.511-50.502-34.707-81.291-32.667-4.168 26.506 11.344 54.122 29.12 71.44zM439.294 37.421c-22.87-31.194-46.519-62.264-83.872-62.878-36.744-0.649-48.535 31.060-90.471 31.060-41.971 0-55.133-30.447-89.827-31.709-36.049-1.261-63.467 33.718-86.519 64.79-47.096 63.555-83.046 179.768-34.694 258.152 23.927 38.954 66.841 63.572 113.323 64.235 35.405 0.601 68.859-22.293 90.471-22.293 21.678 0 62.276 27.482 104.956 23.463 17.875-0.692 68.014-6.728 100.211-50.731-2.529-1.57-59.844-32.686-59.151-97.567 0.678-77.522 72.726-103.264 73.553-103.603-0.662-1.848-11.527-36.767-37.983-72.918z" />
<glyph unicode="&#xe664;" d="M418.229 128.613c-11.034-3.466-20.733-8.327-29.678-14.583-6.897-4.904-4.596-12.611 2.3-11.892 7.567 1.392 17.844 3.397 28.879 4.96 24.118 2.029 42.875-1.111 49.77-10.197 9.654-11.834-3.034-59.715-12.063-82.116-2.634-6.974 3.512-9.807 9.781-4.861 28.385 16.49 44.767 57.793 44.767 99.88v4.228c0 5.62-1.378 9.764-2.676 11.836-6.269 7.651-56.803 14.279-91.079 2.747zM280.678 331.175c-11.682-0.997-25.137-1.994-38.611-3.956-20.686-2.894-41.329-6.849-58.365-15.629-33.241-14.696-55.703-45.984-55.703-91.969 0-57.69 34.114-87.049 77.234-87.049 14.387 0 26.055 1.93 36.834 4.823 17.051 5.983 31.425 16.723 48.49 36.243 9.848-14.633 12.599-21.514 29.633-37.142 4.496-1.994 8.931-1.994 12.57 0.899 10.794 9.873 29.634 27.432 39.512 37.238 4.494 3.924 3.578 9.776 0.916 14.697-9.879 13.667-19.755 25.404-19.755 51.805v88.047c0 37.205 2.66 71.42-22.447 96.857-20.644 20.58-52.968 28.363-78.153 28.363h-10.766c-45.81-2.926-94.313-24.407-105.108-86.084-1.774-7.814 3.637-10.74 7.216-11.738l50.291-6.849c5.397 0.997 8.059 5.853 8.946 10.773 4.525 21.512 20.703 32.253 38.654 34.247h3.58c10.764 0 22.431-4.921 28.762-14.697 7.126-11.736 6.269-27.397 6.269-41.064v-7.814zM270.831 214.734c-6.358-13.634-17.111-22.478-28.762-25.404-1.817 0-4.48-0.997-7.2-0.997-19.771 0-31.453 16.626-31.453 41.097 0 31.289 17.079 45.953 38.654 52.835 11.653 2.926 25.126 3.89 38.611 3.89v-11.769c0-22.51 0.858-40.1-9.848-59.651zM439.303 79.277c-3.971-1.635-8.488-3.933-12.459-5.534-57.596-24.863-118.009-36.363-174.058-36.363-89.045 0-175.029 26.998-244.566 71.592-6.472 3.833-10.989-3.332-5.502-8.267 64.521-64.456 149.534-102.984 244.595-102.984 59.006 0 126.996 18.164 179.53 52.858 6.971 4.466 13.974 9.365 20.522 14.832 8.973 7.2 0.94 18.197-8.063 13.865z" />
<glyph unicode="&#xe665;" d="M460.621 229.006c0 0-16.69 31.349-37.783 63.77-34.392-31.202-70.032-25.98-85.205-22.656-19.964 4.374-25.378 12.943-23.741 20.469-11.632 3.682-52.555 28.092-77.292 36.207-47.58-29.2-66.65-102.148-64.359-176.361-31.922-61.108-55.678-81.757-120.862-96.839 12.264-29.007 17.211-39.897 35.382-78.349 81.501 22.254 133.632 70.45 165.651 111.699 54.547-13.998 94.412-48.925 127.378-112.324 34.183 28.74 37.96 31.699 67.057 55.262-22.67 54.755-78.363 102.118-131.409 127.911 0.476 12.942 0.892 16.185 1.399 26.344 77.947-20.527 143.784 44.865 143.784 44.865zM324.692 340.668c39.807 0 73.601 32.569 73.601 72.746 0 40.187-33.795 72.763-73.601 72.763-39.838 0-73.142-32.577-73.142-72.763 0-40.178 33.305-72.746 73.142-72.746z" />
<glyph unicode="&#xe666;" d="M479.402 322.449c-10.238 11.382-22.777 20.321-37.661 26.844-14.885 6.51-31.617 9.772-50.202 9.772-14.883 0-28.723-2.344-41.501-6.976-12.779-4.659-24.642-10.817-35.558-18.485-10.93-7.668-21.18-16.621-30.7-26.845-9.505-10.238-18.697-20.701-27.536-31.39-9.305 11.155-18.726 21.732-28.242 31.73-9.518 9.998-19.769 18.838-30.685 26.506-10.917 7.667-22.779 13.825-35.558 18.485-12.78 4.632-26.852 6.975-42.187 6.975-18.605 0-35.345-3.388-50.216-10.125-14.876-6.737-27.438-15.801-37.661-27.183-10.23-11.41-18.018-24.882-23.349-40.473-5.367-15.56-8.021-32.421-8.021-50.554 0-18.131 2.775-35.090 8.373-50.906 5.564-15.788 13.698-29.387 24.396-40.783 10.696-11.41 23.483-20.461 38.359-27.197 14.87-6.75 31.844-10.111 50.9-10.111 15.357 0 29.167 2.202 41.495 6.608 12.329 4.421 23.71 10.238 34.161 17.44 10.476 7.217 20.349 15.575 29.625 25.108 9.32 9.531 18.853 19.402 28.611 29.627 8.839-10.224 18.13-20.096 27.904-29.627 9.757-9.533 20.094-17.892 31.024-25.108 10.915-7.201 22.665-13.019 35.218-17.44 12.555-4.406 26.026-6.608 40.443-6.608 18.599 0 35.445 3.361 50.555 10.111 15.108 6.736 27.776 16.042 38.014 27.89 10.209 11.861 18.132 25.687 23.724 41.502 5.563 15.803 8.36 32.762 8.36 50.907 0 18.131-2.796 34.851-8.36 50.214-5.592 15.335-13.514 28.68-23.724 40.090zM195.579 208.76c-6.976-6.736-14.418-12.781-22.31-18.103-7.908-5.351-16.267-9.772-25.109-13.26-8.847-3.501-17.687-5.238-26.505-5.238-17.2 0-30.671 5.337-40.436 16.042-9.766 10.704-14.658 24.401-14.658 41.148 0 15.337 4.773 29.176 14.305 41.489 9.524 12.313 22.432 18.498 38.707 18.498 8.825 0 17.665-2.006 26.498-5.946 8.825-3.94 17.313-8.938 25.447-14.982s15.928-12.68 23.356-19.881c7.428-7.203 13.953-13.84 19.546-19.884-5.593-6.496-11.863-13.133-18.839-19.883zM431.983 188.889c-9.319-11.154-22.55-16.731-39.752-16.731-9.756 0-18.938 1.624-27.549 4.885-8.599 3.248-16.848 7.555-24.756 12.922-7.907 5.323-15.336 11.367-22.31 18.117-6.963 6.736-13.471 13.585-19.531 20.561 5.578 6.044 11.863 12.68 18.838 19.884 6.963 7.2 14.277 13.838 21.958 19.881 7.683 6.044 15.802 11.042 24.402 14.983 8.615 3.939 17.552 5.945 26.858 5.945 17.199 0 30.8-5.832 40.796-17.452 9.983-11.623 14.997-25.574 14.997-41.828 0-16.282-4.66-30.009-13.952-41.165z" />
</font>
</defs>
</svg>
